<?xml version="1.0" standalone="no"?>
<!DOCTYPE svg PUBLIC "-//W3C//DTD SVG 1.1//EN" "http://www.w3.org/Graphics/SVG/1.1/DTD/svg11.dtd">
<svg xmlns="http://www.w3.org/2000/svg">
<metadata>Copyright (C) 2018 by original authors @ fontello.com</metadata>
<defs>
<font id="owl" horiz-adv-x="1000" >
<font-face font-family="owl" font-weight="400" font-stretch="normal" units-per-em="1000" ascent="850" descent="-150" />
<missing-glyph horiz-adv-x="1000" />
<glyph glyph-name="adjust" unicode="&#xe800;" d="M929 663h-479c-1 34-29 62-64 62h-71c-35 0-63-28-64-62h-180c-12 0-21-10-21-22v-32c0-12 9-21 21-21h180c1-35 29-62 63-62h72c35 0 63 27 63 62h479c12 0 22 9 22 21v32c0 12-9 22-21 22z m0-275h-129c-1 34-29 62-64 62h-71c-35 0-63-28-64-62h-530c-11 0-21-10-21-22v-32c0-12 10-21 21-21h530c1-35 29-62 63-62h72c35 0 63 27 63 62h129c12 0 22 9 22 21v32c0 12-9 22-21 22z m0-275h-680c-1 34-29 62-64 62h-71c-36 0-64-29-64-64v-72c0-35 28-64 64-64h71c35 0 63 28 64 63h679c12 0 22 9 22 21v32c0 12-10 22-21 22z" horiz-adv-x="1000" />

<glyph glyph-name="alert" unicode="&#xe801;" d="M430 1c-3-8-5-17-5-25 0-42 34-75 75-75s75 33 75 75c0 8-2 17-4 25z m397 79l-68 141-25 301c-9 105-86 188-185 209-3 24-24 43-49 43s-46-18-49-43c-99-21-175-104-184-209l-25-298-70-144c-7-14 3-30 19-30h617c16 0 26 16 19 30z" horiz-adv-x="1000" />

<glyph glyph-name="arrow-down" unicode="&#xe802;" d="M871 338l-355-396c-8-9-23-9-31 0l-357 398c-8 9-7 22 1 30l24 22c9 8 23 7 30-2l280-311v700c0 12 9 21 21 21h33c11 0 21-9 21-21v-700l277 309c8 9 22 10 30 2l25-22c8-8 9-21 1-30z" horiz-adv-x="1000" />

<glyph glyph-name="arrow-h-switch" unicode="&#xe803;" d="M929 611h-744l121 121c8 8 8 22 0 30l-23 23c-9 8-22 8-30 0l-197-196c-8-8-8-22 0-30l195-195c9-8 22-8 30 0l23 23c9 8 9 22 0 30l-119 119h744c12 0 21 10 21 21v33c0 12-9 21-21 21z m-180-275c-8 9-22 9-30 0l-23-23c-8-8-8-21 0-30l119-119h-744c-11 0-21-9-21-21v-33c0-11 10-21 21-21h744l-120-121c-9-8-9-22 0-30l23-23c8-8 21-8 30 0l196 197c8 8 8 21 0 30z" horiz-adv-x="1000" />

<glyph glyph-name="arrow-left" unicode="&#xe804;" d="M950 366v-32c0-12-9-22-21-22h-701l310-277c9-8 9-21 2-30l-22-25c-8-8-21-9-30-1l-396 355c-9 8-9 23 0 32l398 357c9 7 22 7 30-2l22-24c7-9 7-22-2-30l-311-280h700c11 0 21-9 21-21z" horiz-adv-x="1000" />

<glyph glyph-name="arrow-left2right" unicode="&#xe805;" d="M944 335l-215-215c-8-8-22-8-30 0l-23 23c-8 9-8 22 0 30l139 140h-630l139-140c8-8 8-21 0-30l-23-23c-8-8-22-8-30 0l-215 215c-8 8-8 22 0 30l216 216c9 8 22 8 30 0l23-23c9-8 9-22 0-30l-140-140h630l-140 140c-8 8-8 22 0 30l23 23c8 8 22 8 30 0l216-216c8-8 8-22 0-30z" horiz-adv-x="1000" />

<glyph glyph-name="arrow-next" unicode="&#xe806;" d="M944 435l-215-215c-8-8-22-8-30 0l-23 23c-8 9-8 22 0 30l140 140h-513c-86 0-162-61-173-146-14-103 67-191 167-191h108c12 0 21-10 21-22v-32c0-12-9-21-21-21h-100c-129 0-243 97-251 227-10 142 103 260 243 260h518l-140 140c-8 8-8 22 0 30l23 23c8 8 22 8 30 0l216-216c8-8 8-22 0-30z" horiz-adv-x="1000" />

<glyph glyph-name="arrow-reload" unicode="&#xe807;" d="M861 750h-33c-12 0-21-9-21-21v-115c-76 88-188 141-307 141-101 0-196-36-270-103-9-8-9-23-1-31l23-23c8-8 21-8 30-1 60 54 137 83 218 83 105 0 204-51 266-134h-111c-12 0-22-10-22-21v-33c0-12 10-21 22-21h206c11 0 21 9 21 21v237c0 12-10 21-21 21z m-113-648c-8 8-21 8-30 1-60-54-137-83-218-83-105 0-204 52-265 134h111c11 0 21 10 21 22v32c0 12-10 21-21 21h-206c-12 0-22-9-22-21v-237c0-12 10-21 22-21h32c12 0 21 9 21 21v115c76-88 188-141 307-141 101 0 196 36 271 104 9 8 9 22 0 30z" horiz-adv-x="1000" />

<glyph glyph-name="arrow-return" unicode="&#xe808;" d="M948 228c-9-130-122-227-252-227h-100c-11 0-21 9-21 21v33c0 11 10 21 21 21h103c85 0 162 61 173 146 13 103-67 191-167 191h-521l140-139c8-9 8-22 0-30l-23-23c-8-9-22-9-30 0l-215 214c-8 8-8 22 0 30l216 216c9 8 22 8 30 0l23-23c9-8 9-22 0-30l-139-140h519c139 0 252-118 243-260z" horiz-adv-x="1000" />

<glyph glyph-name="arrow-right" unicode="&#xe809;" d="M908 335l-398-358c-8-7-22-7-30 2l-21 24c-8 9-7 23 1 30l311 280h-700c-11 0-21 9-21 21v33c0 11 10 21 21 21h701l-310 277c-8 8-9 22-1 30l22 25c7 8 21 9 30 1l395-355c10-8 10-23 0-31z" horiz-adv-x="1000" />

<glyph glyph-name="arrow-top-right" unicode="&#xe80a;" d="M836 665v-579c0-12-9-22-21-22h-33c-11 0-21 10-21 22v471l-551-551c-8-8-22-8-30 0l-23 23c-8 9-8 22 0 30l551 552h-469c-12 0-21 9-21 21v33c0 11 9 21 21 21h576c12 0 21-10 21-21z" horiz-adv-x="1000" />

<glyph glyph-name="arrow-top" unicode="&#xe80b;" d="M871 331l-24-22c-9-8-22-7-30 1l-280 312v-701c0-11-9-21-21-21h-32c-12 0-22 10-22 21v701l-277-309c-8-9-21-10-30-2l-24 22c-9 7-10 21-2 30l355 395c8 10 23 10 32 0l357-397c8-9 7-23-2-30z" horiz-adv-x="1000" />

<glyph glyph-name="arrow-top2down" unicode="&#xe80c;" d="M730 157c8-8 8-21 0-30l-215-215c-8-8-22-8-30 0l-216 217c-8 8-8 21 0 30l23 23c8 8 22 8 30 0l141-141v618l-141-140c-8-9-22-9-30 0l-23 23c-8 8-8 21 0 30l216 216c8 8 22 8 30 0l215-215c8-8 8-22 0-30l-23-23c-8-8-22-8-30 0l-139 139v-618l139 139c8 8 22 8 30 0z" horiz-adv-x="1000" />

<glyph glyph-name="arrow-update" unicode="&#xe80d;" d="M880 729v-236c0-11-10-21-21-21h-205c-12 0-22 10-22 21v33c0 12 10 21 22 21h110c-87 117-248 170-397 105-101-45-174-139-191-249-31-203 126-379 324-379 81 0 157 29 217 82 9 8 22 8 30 0l23-23c8-9 8-23-1-31-77-69-176-105-280-103-209 6-382 176-391 385-11 230 174 421 402 421 118 0 229-53 305-140v114c0 12 9 21 21 21h33c11 0 21-9 21-21z" horiz-adv-x="1000" />

<glyph glyph-name="arrow-v-switch" unicode="&#xe80e;" d="M935 598l-196 196c-8 8-22 8-30 0l-195-195c-8-8-8-22 0-30l23-23c8-8 22-8 30 0l119 119v-744c0-12 10-21 21-21h33c12 0 21 9 21 21v744l121-121c8-8 22-8 30 0l23 23c8 9 8 22 0 31z m-472-444c-8 9-21 9-30 0l-119-119v744c0 11-9 21-21 21h-33c-11 0-21-10-21-21v-744l-121 121c-8 8-21 8-30 0l-23-23c-8-9-8-22 0-30l197-197c8-8 21-8 30 0l195 195c8 9 8 22 0 30z" horiz-adv-x="1000" />

<glyph glyph-name="audio" unicode="&#xe80f;" d="M384 359c-31 31-48 72-48 116s17 85 48 116l-53 53c-45-45-70-105-70-169s25-124 70-169z m-202 434c-85-85-132-198-132-318s47-233 132-318l53 53c-146 146-146 384 0 531z m487-487c46 45 70 105 70 169s-25 124-70 169l-53-53c31-31 48-72 48-116s-17-85-48-116z m149 487l-53-53c147-146 147-384 0-530l53-53c85 85 132 198 132 318s-46 233-132 318z m-299-359c-7 17-30 17-38 0l-238-504c-7-14 3-30 19-30h476c16 0 26 16 20 30z" horiz-adv-x="1000" />

<glyph glyph-name="briefcase" unicode="&#xe810;" d="M879 526h-142v98c0 56-46 101-101 101h-273c-56 0-101-45-101-101v-98h-142c-12 0-21-10-21-23v-25-531-1c0-12 9-22 21-22h0 759c12 0 21 10 21 22v1 531 25c0 13-9 23-21 23z m-701-75h75v-452h-75z m570 0h75v-452h-75z m-411 173c0 14 12 26 26 26h273c14 0 26-12 26-26v-98h-325z" horiz-adv-x="1000" />

<glyph glyph-name="bullhorn" unicode="&#xe811;" d="M876 364c27 26 42 64 36 104s-31 73-65 90l-25 167-2 18c-3 15-19 23-32 15l-55-30-70-39-431-238-151 28c-14 2-27-10-25-24l38-259c3-15 19-23 32-16l49 28 61 35c-15-120 67-269 130-325 10-8 25-6 32 5l43 72c5 8 4 18-2 25-38 40-98 163-76 221l515-79c9-1 17 4 21 11 2 4 4 9 3 13z m-131 285l59-400-77 12-52 349z" horiz-adv-x="1000" />

<glyph glyph-name="calendar" unicode="&#xe812;" d="M944 723c-4 4-9 6-15 6h-53v50c0 12-10 21-21 21h-33c-12 0-21-9-21-21v-50h-600v50c0 12-10 21-22 21h-32c-12 0-21-9-21-21v-50h-55c-5 0-11-2-15-6s-6-9-6-15v-134-75-555c0-12 10-21 21-21h858c12 0 21 9 21 21v555 75 134c0 6-2 11-6 15z m-819-614v7c0 12 10 22 21 22h111c12 0 21-10 21-22v-7c0-12-9-21-21-21h-111c-11 0-21 9-21 21z m482 149c0-11-10-21-21-21h-111c-12 0-21 10-21 21v8c0 12 9 21 21 21h111c11 0 21-9 21-21z m-24-120c12 0 21-10 21-22v-7c0-12-9-21-21-21h-210c-12 0-21 9-21 21v7c0 12 9 22 21 22z m-205 120c0-12-10-21-22-21h-210c-11 0-21 9-21 21v8c0 11 10 21 21 21h210c12 0 22-10 22-21z m476 241h-708c-11 0-21 9-21 21v32c0 12 10 22 21 22h708c12 0 21-10 21-22v-32c0-12-9-21-21-21z" horiz-adv-x="1000" />

<glyph glyph-name="card-member" unicode="&#xe813;" d="M937 725c-2 1-5 1-8 1h-858c-3 0-5 0-8-1-8-4-13-11-13-20v-709c0-12 10-21 21-21h858c12 0 21 9 21 21v709c0 9-5 16-13 20z m-155-275h-186c-11 0-21 10-21 21v8c0 12 10 21 21 21h186c12 0 21-9 21-21v-8c0-11-9-21-21-21z m-207 171v7c0 12 10 21 21 21h258c12 0 21-9 21-21v-7c0-12-9-22-21-22h-258c-11 0-21 10-21 22z m-97 30c12 0 21-9 21-21v-408c0-1 0-1 0-2l-28 79c-1 2-3 4-6 5l-125 53h35c20 0 37 16 37 37v172c0 21-17 37-37 37h-127c-21 0-37-16-37-37v-172c0-21 16-37 37-37h35l-125-53c-3-1-5-3-5-5l-28-77v414c3 9 11 15 20 15h333z" horiz-adv-x="1000" />

<glyph glyph-name="camera-slr" unicode="&#xe814;" d="M929 600h-152l-43 136c-3 9-11 15-21 15h-339c-9 0-17-6-20-15l-44-136h-239c-11 0-21-9-21-21v-608c0-12 10-21 21-21h858c12 0 21 9 21 21v608c0 12-9 21-21 21z m-679-103c0-12-10-22-21-22h-83c-11 0-21 10-21 22v7c0 12 10 21 21 21h83c11 0 21-9 21-21z m300-446c-111 0-200 90-200 200s89 200 200 200 200-89 200-200-90-200-200-200z" horiz-adv-x="1000" />

<glyph glyph-name="card" unicode="&#xe815;" d="M930 675h-857c-12 0-22-9-22-21v-154h900v154c0 12-9 21-21 21z m-879-629c0-11 10-21 22-21h857c12 0 21 10 21 21v304h-900v-304z m674 108c0 12 10 21 21 21h108c12 0 21-9 21-21v-8c0-11-9-21-21-21h-108c-11 0-21 10-21 21z m-300 0c0 12 10 21 21 21h183c12 0 21-9 21-21v-8c0-11-9-21-21-21h-183c-11 0-21 10-21 21z" horiz-adv-x="1000" />

<glyph glyph-name="caret-bottom" unicode="&#xe816;" d="M702 461l-183-302c-8-14-28-14-36 0l-185 304c-9 14 1 32 18 32l368-1c17 0 27-18 18-33z" horiz-adv-x="1000" />

<glyph glyph-name="caret-left" unicode="&#xe817;" d="M611 148l-302 183c-14 8-14 28 0 36l304 185c14 9 32-2 32-18l-1-368c0-16-19-27-33-18z" horiz-adv-x="1000" />

<glyph glyph-name="caret-left2right" unicode="&#xe818;" d="M777 368l-168 124c-14 10-34 0-34-17l-1-249c0-17 20-27 34-17l169 125c11 8 11 25 0 34z m-386 124l-168-124c-11-9-11-26 0-34l169-125c14-11 34 0 34 17l-1 249c0 17-20 27-34 17z" horiz-adv-x="1000" />

<glyph glyph-name="caret-right" unicode="&#xe819;" d="M389 552l303-183c13-8 13-28 0-36l-305-185c-14-9-32 1-32 18l2 368c0 17 18 27 32 18z" horiz-adv-x="1000" />

<glyph glyph-name="caret-top" unicode="&#xe81a;" d="M297 239l184 303c8 13 28 13 36 0l185-305c8-14-2-32-19-32l-368 2c-16 0-26 18-18 32z" horiz-adv-x="1000" />

<glyph glyph-name="caret-top2down" unicode="&#xe81b;" d="M376 425l248-1c18 0 28 20 17 34l-124 169c-9 12-26 12-35 0l-123-168c-11-14-1-34 17-34z m248-149l-248-1c-18 0-28-20-17-34l123-168c9-11 26-11 35 0l124 169c11 14 1 34-17 34z" horiz-adv-x="1000" />

<glyph glyph-name="circle-clock-o" unicode="&#xe81c;" d="M500 800c-248 0-450-201-450-450s202-450 450-450 450 202 450 450-201 450-450 450z m88-552c0-12-10-22-22-22h-200c-12 0-21 10-21 22v32c0 12 9 21 21 21h125c12 0 22 10 22 22v199c0 12 9 21 21 21h32c12 0 22-9 22-21z" horiz-adv-x="1000" />

<glyph glyph-name="code" unicode="&#xe81d;" d="M938 366l-170 193c-8 9-21 10-30 2l-24-22c-9-7-10-21-2-30l139-157-139-161c-8-9-7-22 2-30l25-21c8-8 22-7 30 2l170 197c6 7 6 19-1 27z m-789-14l140 157c7 9 7 23-2 30l-24 22c-9 8-23 7-30-2l-171-193c-7-8-7-20 0-28l171-196c7-9 21-10 30-3l24 22c9 7 10 21 2 30z m492 264l-30 13c-10 5-23 1-28-10l-234-506c-5-11 0-23 10-28l30-14c11-5 23 0 28 10l234 506c5 11 0 24-10 29z" horiz-adv-x="1000" />

<glyph glyph-name="cloud" unicode="&#xe81e;" d="M863 253c-3 0-6-1-9-1 13 22 21 48 21 76 0 83-67 150-150 150-4 0-9 0-13-1-37 116-146 201-274 201-159 0-288-129-288-288 0-22 3-43 8-64-61-9-108-60-108-123 0-69 56-125 125-125h675v1c4 0 8-1 13-1 48 0 87 39 87 87s-39 88-87 88z" horiz-adv-x="1000" />

<glyph glyph-name="compass" unicode="&#xe81f;" d="M500 801c-248 0-450-201-450-450s202-450 450-450 450 202 450 450c0 249-201 450-450 450z m196-272l-195-407c-6-12-23-11-27 2l-41 150c-1 5-5 9-10 10l-150 41c-13 3-14 21-2 26l406 197c12 6 25-7 19-19z" horiz-adv-x="1000" />

<glyph glyph-name="copy" unicode="&#xe820;" d="M71 547c-11 0-21-10-21-21v-530c0-12 10-22 21-22h683c11 0 21 10 21 22v181 370h-575z m858 228h-707c-12 0-22-10-22-22v-156h604c11 0 21-10 21-21v-399h104c12 0 21 10 21 21v555c0 12-9 22-21 22z" horiz-adv-x="1000" />

<glyph glyph-name="delete" unicode="&#xe821;" d="M929 677h-616c-6 0-12-3-16-8l-239-305c-6-7-6-18 0-26l239-304c4-6 10-9 16-9h616c12 0 21 10 21 22v609c0 11-9 21-21 21z m-166-440c8-9 8-22 0-30l-23-23c-8-9-22-9-30 0l-115 114-115-114c-8-9-21-9-30 0l-23 23c-8 8-8 21 0 30l115 114-115 115c-8 8-8 22 0 30l23 23c9 8 22 8 30 0l115-115 115 115c8 8 22 8 30 0l23-23c8-8 8-22 0-30l-115-115z" horiz-adv-x="1000" />

<glyph glyph-name="direction-down-double" unicode="&#xe822;" d="M86 396l400-397c8-8 22-8 30 0l398 395c8 8 8 21 0 30l-23 23c-8 8-21 8-30 0l-360-357-362 359c-8 8-22 8-30 0l-23-23c-8-9-8-22 0-30z m400-108c8-9 22-9 30 0l331 331c8 8 8 22 0 30l-23 23c-9 8-22 8-30 0l-293-293-294 296c-8 8-22 8-30 0l-23-23c-8-9-8-22 0-30z" horiz-adv-x="1000" />

<glyph glyph-name="direction-down" unicode="&#xe823;" d="M485 63l-399 445c-8 9-7 22 1 30l24 22c9 8 23 7 30-2l360-400 356 398c8 9 22 9 30 2l25-22c8-8 9-21 1-30l-396-443c-9-9-24-9-32 0z" horiz-adv-x="1000" />

<glyph glyph-name="direction-first" unicode="&#xe824;" d="M240 350l359 362c8 8 8 22 0 30l-23 23c-8 8-22 8-30-1l-397-400c-8-8-8-21 0-30l395-398c8-8 21-8 30 0l23 23c8 8 8 22 0 30z m289 0l296 294c8 8 8 21 0 30l-23 23c-9 8-22 8-30 0l-334-332c-9-8-9-22 0-30l331-331c8-8 22-8 30 0l23 23c8 9 8 22 0 30z" horiz-adv-x="1000" />

<glyph glyph-name="direction-last" unicode="&#xe825;" d="M851 366l-394 397c-8 9-22 9-30 1l-23-23c-8-8-9-22 0-30l356-360-359-363c-8-8-8-22 1-30l23-23c8-8 21-8 30 1l396 400c8 8 8 21 0 30z m-288 0l-332 330c-8 8-21 8-30 0l-23-23c-8-8-8-22 0-30l293-292-295-294c-8-9-8-22 0-30l23-23c8-9 22-9 30 0l334 331c8 9 8 22 0 31z" horiz-adv-x="1000" />

<glyph glyph-name="direction-left" unicode="&#xe826;" d="M656-63l-443 397c-9 8-9 23 0 31l445 400c9 7 22 7 30-2l22-24c8-9 7-22-2-30l-400-359 398-357c9-8 9-22 2-30l-22-25c-8-8-22-9-30-1z" horiz-adv-x="1000" />

<glyph glyph-name="direction-left2right" unicode="&#xe827;" d="M157 350l196 176c9 8 9 21 2 30l-22 24c-8 9-21 10-30 2l-241-216c-9-8-9-23 0-32l242-217c9-8 23-7 30 1l22 25c8 8 7 22-1 30z m781 16l-241 216c-8 8-22 7-30-2l-21-24c-8-9-7-22 1-30l197-176-198-177c-9-8-10-22-2-30l22-25c8-8 21-9 30-1l242 217c10 9 10 24 0 32z" horiz-adv-x="1000" />

<glyph glyph-name="direction-right" unicode="&#xe828;" d="M312-63l-22 24c-8 9-7 22 1 30l401 360-398 356c-9 8-9 22-2 30l22 25c8 8 21 9 30 1l442-396c10-9 10-24 0-32l-444-400c-9-7-23-7-30 2z" horiz-adv-x="1000" />

<glyph glyph-name="direction-top-double" unicode="&#xe829;" d="M914 304l-400 397c-8 8-22 8-30 0l-398-394c-8-8-8-22 0-30l23-23c8-8 22-9 30 0l360 356 362-359c8-8 22-8 30 1l23 23c9 8 8 21 0 29z m-400 109c-8 8-22 8-30 0l-330-332c-9-8-9-21 0-30l23-23c8-8 21-8 30 0l292 293 294-295c8-9 22-9 30 0l23 23c8 8 8 21 0 30z" horiz-adv-x="1000" />

<glyph glyph-name="direction-top" unicode="&#xe82a;" d="M859 142l-359 400-357-397c-8-9-21-10-30-2l-24 22c-9 7-10 21-2 30l397 442c8 9 23 9 31 0l400-445c7-9 7-22-2-30l-24-22c-9-7-22-7-30 2z" horiz-adv-x="1000" />

<glyph glyph-name="direction-top2down" unicode="&#xe82b;" d="M293 494c8-7 22-7 30 2l177 198 176-197c8-8 21-9 30-1l24 21c9 8 10 22 2 30l-216 241c-8 10-23 10-32 0l-217-242c-8-9-7-22 1-30z m413-289c-9 7-22 7-30-2l-176-196-177 197c-8 9-22 10-30 2l-25-22c-8-8-9-21-1-30l217-242c9-10 24-10 32 0l216 241c8 8 7 22-2 30z" horiz-adv-x="1000" />

<glyph glyph-name="earth" unicode="&#xe82c;" d="M252 350c0-51 6-102 17-150h462c11 48 17 99 17 150s-6 102-17 150h-462c-11-48-17-98-17-150z m31-200c28-91 76-173 137-243 26-4 53-7 80-7s54 3 79 7c62 70 110 152 138 243z m-81 200c0 52 6 102 16 150h-142c-16-47-26-97-26-150s10-103 26-150h142c-10 49-16 99-16 150z m722 150h-142c10-48 16-98 16-150s-6-101-16-150h142c17 47 26 97 26 150s-9 103-26 150z m-586 270c-105-41-191-120-241-220h134c23 80 60 154 107 220z m324-840c105 41 191 120 241 220h-133c-24-80-61-154-108-220z m241 620c-50 100-136 179-241 220 48-66 85-140 108-220z m-806-400c50-100 136-179 241-220-47 66-84 140-107 220z m621 400c-29 91-77 173-138 243-26 4-53 7-80 7s-54-3-79-7c-62-70-110-152-138-243z" horiz-adv-x="1000" />

<glyph glyph-name="edit" unicode="&#xe82d;" d="M934 642l-140 140c-8 8-21 8-30 0l-70-71h-574c-11 0-21-9-21-21v-721c0-12 10-22 21-22h722c11 0 21 10 21 22v572l-451-450-181-36c-15-3-28 10-25 25l37 180 451 451 169-170 71 71c8 8 8 22 0 30z" horiz-adv-x="1000" />

<glyph glyph-name="editor-attachment" unicode="&#xe82e;" d="M700 58c0 0 0 0-1 0l-479 0c-12 0-21 10-21 21v33c0 12 9 21 21 21l479 0h1c27 0 54 5 78 17 63 33 99 94 99 160l0 41c1 45-14 90-44 124-34 38-82 60-133 60l-470 1h-1c-58 0-105-47-105-105v-36c0-24 6-49 21-68 21-27 51-42 84-42l473-1c15 0 27 12 27 27l0 47c0 14-12 26-26 26l-332 1c-12 0-22 10-22 21v33c0 12 10 21 22 21l331 0c57 0 102-46 102-102l0-47c-1-56-46-102-102-102h0l-467 1c-46 0-91 15-125 45-39 35-61 84-61 136l0 40c0 99 81 180 181 180h0l462-1c66 0 131-22 179-66 53-49 82-116 82-187l0-47c-1-139-114-252-253-252z" horiz-adv-x="1000" />

<glyph glyph-name="fire" unicode="&#xe82f;" d="M706 552c-103 27-187 101-227 198-6 15-25 19-36 7-48-53-80-122-80-197 0-59 26-114 55-160 0 0 13-27 13-42 0-42-34-76-76-76-14 0-26 3-36 9-46 20-75 114-85 167-3 15-22 22-34 11-68-57-111-143-111-239 0-173 141-314 314-314 4 0 7 1 11 1 40-12 83-15 129-6 100 19 180 99 201 199 12 61 3 120-22 169-10 22 17 43 34 26 49-47 80-114 80-187 0-9-1-18-2-27-2-22 27-32 40-13 32 49 51 108 51 172 0 142-77 258-219 302z" horiz-adv-x="1000" />

<glyph glyph-name="flag" unicode="&#xe830;" d="M921 474l-741 314c-14 6-30-5-30-20v-847c0-12 10-21 21-21h33c12 0 21 9 21 21v303l694 210c19 6 20 32 2 40z" horiz-adv-x="1000" />

<glyph glyph-name="fork" unicode="&#xe831;" d="M714 499h172c36 0 64 28 64 64v172c0 35-28 64-64 64h-172c-35 0-64-29-64-64v-49h-131c-31 0-56-26-56-58v-241h-113v48c0 35-28 64-64 64h-172c-35 0-64-29-64-64v-173c0-35 29-63 64-63h172c36 0 64 28 64 63v50h113v-241c0-33 25-59 56-59h131v-49c0-35 29-64 64-64h172c36 0 64 29 64 64v173c0 35-28 63-64 63h-172c-35 0-64-28-64-63v-49h-112v524h112v-48c0-36 29-64 64-64z" horiz-adv-x="1000" />

<glyph glyph-name="format-download" unicode="&#xe832;" d="M925 617h-387v139c0 12-10 21-21 21h-33c-12 0-21-9-21-21v-139h-387c-14 0-26-10-26-23v-620c0-13 12-24 26-24h849c14 0 25 11 25 24v620c0 13-11 23-25 23z m-145-194l-264-294c-8-10-23-10-31 0l-266 295c-8 9-7 23 2 30l24 22c9 8 22 7 30-1l188-210v352h75v-352l186 208c8 9 22 9 30 1l25-21c8-8 9-22 1-30z" horiz-adv-x="1000" />

<glyph glyph-name="format-file" unicode="&#xe833;" d="M846 790c-4 6-11 11-18 11h-302-354c-12 0-21-10-21-22v-353-504c0-12 9-22 21-22h656c9 0 16 6 19 13 1 3 2 6 2 9v857c0 4-1 8-3 11z m-620-621c2 10 10 17 20 17h186c12 0 21-9 21-21v-7c0-12-9-22-21-22h-186c-10 0-18 8-20 18z m326 138c0-12-9-21-21-21h-285c-10 0-18 7-20 17v15c2 10 10 18 20 18h285c12 0 21-10 21-22z m-305 419h152c19 0 29-23 15-37l-152-152c-14-14-36-4-36 15v152c0 12 9 22 21 22z" horiz-adv-x="1000" />

<glyph glyph-name="format-folder" unicode="&#xe834;" d="M929 650h-329l-131 131c-12 12-28 19-45 19h-353c-11 0-21-10-21-22v-150-78-75-454c0-6 3-11 6-15s10-7 15-7h858c12 0 21 10 21 22v454 75 78c0 12-9 22-21 22z m-75-175h-708c-11 0-21 9-21 21v32c0 12 10 22 21 22h708c12 0 21-10 21-22v-32c0-12-9-21-21-21z" horiz-adv-x="1000" />

<glyph glyph-name="format-gif" unicode="&#xe835;" d="M290 314h-19v-48h16c13 0 22 2 27 6s8 11 8 17-2 13-7 18-12 7-25 7z m639 412h-506-352c-11 0-21-10-21-22v-351-357c0-12 10-21 21-21h858c12 0 21 9 21 21v708c0 12-9 22-21 22z m-783-75h150c19 0 29-23 15-37l-150-150c-13-13-36-4-36 15v150c0 12 10 22 21 22z m221-411c-13-12-33-18-59-18h-37v-80h-66v215h110c24 0 42-6 54-17s18-28 18-49c0-21-7-38-20-51z m260-98h-62l-81 118v-118h-62v215h62l81-119v119h62v-215z m248 157l-60-10c-3 8-7 14-13 18s-15 7-24 7c-15 0-27-5-35-16s-13-26-13-48c0-23 4-39 13-49s21-15 36-15c8 0 15 1 22 3s14 6 23 11v20h-45v45h96v-96c-17-11-32-19-45-23-15-5-33-7-54-7-25 0-46 4-62 13s-29 22-37 39-14 37-14 59c0 23 5 44 15 61s24 31 42 40c15 7 35 10 59 10 24 0 42-2 53-6s22-11 30-20c5-7 10-15 13-24z" horiz-adv-x="1000" />

<glyph glyph-name="format-jpg" unicode="&#xe836;" d="M937 724c-2 1-5 2-8 2h-506-352c-11 0-21-10-21-22v-708c0-9 5-17 13-20 3-1 5-2 8-2h858c3 0 6 1 8 2 8 3 13 11 13 20v708c0 9-5 17-13 20z m-791-73h150c19 0 29-23 15-37l-150-150c-13-13-36-4-36 15v150c0 12 10 22 21 22z m224-411c0-24-3-43-7-56s-13-23-26-32c-13-9-30-13-51-13-21 0-38 3-50 8s-21 15-28 26-10 25-11 42l63 9c0-10 1-17 3-21s4-9 8-12c2-1 6-2 11-2 7 0 12 2 16 8s5 15 5 28v132h67z m206 0c-13-12-33-18-59-18h-37v-80h-67v215h111c24 0 42-6 54-17s18-28 18-49c0-21-7-38-20-51z m265-67c-20-13-37-22-52-27s-33-7-54-7c-25 0-46 4-62 13s-28 22-37 39-13 37-13 59c0 23 4 44 14 61s24 31 43 40c14 7 34 10 58 10 24 0 42-2 54-6s21-11 29-20 13-21 17-35l-64-11c-2 8-7 14-13 18s-14 7-24 7c-15 0-26-5-35-15s-13-26-13-48c0-24 4-40 13-50s21-15 37-15c7 0 14 1 21 3s14 6 23 11v20h-44v45h102z m-342 141h-19v-48h16c13 0 22 2 27 6s8 11 8 17-2 13-7 18-12 7-25 7z" horiz-adv-x="1000" />

<glyph glyph-name="format-left" unicode="&#xe837;" d="M743 800h-620c-13 0-23-11-23-25v-850c0-14 10-25 23-25h620c13 0 24 11 24 25v387h-353l208-186c9-8 10-21 2-30l-22-24c-8-9-21-10-30-2l-294 264c-9 8-9 23 0 32l296 265c9 8 22 7 30-1l22-25c8-8 7-22-2-30l-209-188h352v388c0 14-11 25-24 25z m163-413h-139v-75h139c12 0 21 10 21 22v32c0 12-9 21-21 21z" horiz-adv-x="1000" />

<glyph glyph-name="format-mail" unicode="&#xe838;" d="M929 675h-858c-11 0-21-10-21-22v-149-83-425c0-12 10-21 21-21h858c12 0 21 9 21 21v424 83 150c0 12-9 22-21 22z m-66-296l-353-168c-6-3-13-3-19 0l-354 169c-7 3-12 11-12 19v36c0 16 16 26 31 19l336-160c5-3 12-3 18 0l335 159c14 7 30-3 30-19v-36c0-8-5-16-12-19z" horiz-adv-x="1000" />

<glyph glyph-name="format-pdf" unicode="&#xe839;" d="M290 314h-19v-48h16c13 0 22 2 27 6s8 11 8 17-2 13-7 18-12 7-25 7z m215-5h-16v-118h16c14 0 24 2 30 5s10 8 13 16 5 20 5 37c0 23-3 38-11 47s-19 13-37 13z m424 417h-506-352c-11 0-21-10-21-22v-351-357c0-3 1-6 2-8 3-8 11-13 19-13h858c12 0 21 9 21 21v708c0 12-9 22-21 22z m-783-75h150c19 0 29-23 15-37l-150-150c-13-13-36-4-36 15v150c0 12 10 22 21 22z m221-411c-13-12-33-18-59-18h-37v-80h-66v215h110c24 0 42-6 54-17s18-28 18-49c0-21-7-38-20-51z m245-43c-5-13-12-23-21-32s-20-14-30-17c-15-4-28-5-40-5h-98v214h98c20 0 35-2 47-8s22-12 30-22 13-22 17-35 5-27 5-41c0-23-3-41-8-54z m207 114h-97v-37h83v-44h-83v-87h-67v214h164v-46z" horiz-adv-x="1000" />

<glyph glyph-name="format-right" unicode="&#xe83a;" d="M879 800h-620c-13 0-24-11-24-25v-387h-139c-11 0-21-10-21-21v-33c0-12 10-21 21-21h139v-388c0-14 11-25 24-25h620c13 0 24 11 24 25v850c0 14-11 25-24 25z m-155-465l-296-266c-8-8-22-7-30 2l-21 24c-8 9-7 22 1 30l209 188h-352v75h353l-208 186c-9 8-10 22-2 30l22 25c8 8 21 9 30 1l294-264c10-8 10-23 0-31z" horiz-adv-x="1000" />

<glyph glyph-name="format-text" unicode="&#xe83b;" d="M948 712c-3 8-10 13-19 13h-506-352c-11 0-21-10-21-21v-352-357c0-3 1-6 2-8 3-8 11-13 19-13h858c9 0 16 5 19 13 1 2 2 5 2 8v709c0 3 0 5-2 8z m-302-352h-95v-226h-93v226h-94v74h282v-74z m-500 290h150c19 0 29-23 15-36l-150-150c-13-14-36-4-36 15v150c0 11 10 21 21 21z" horiz-adv-x="1000" />

<glyph glyph-name="format-upload" unicode="&#xe83c;" d="M925 750h-849c-14 0-26-11-26-24v-619c0-13 12-24 26-24h386v352l-186-208c-8-9-21-9-30-1l-24 21c-9 8-10 22-2 30l264 294c9 10 23 10 32 0l265-295c8-9 7-23-1-30l-24-22c-9-8-23-7-30 1l-188 210v-353h387c14 0 25 11 25 24v620c0 13-11 24-25 24z m-463-806c0-12 10-22 22-22h32c12 0 21 10 21 22v139h-75z" horiz-adv-x="1000" />

<glyph glyph-name="gear-double" unicode="&#xe83d;" d="M622 282c19 5 37 2 54-6 20 33 35 69 44 107-5 2-10 4-14 7-39 23-51 73-28 111 10 17 25 28 42 34-7 34-20 67-39 98-1 3-3 6-5 9-5-2-10-4-15-5-44-11-87 15-98 59-5 18-2 37 6 53-33 21-70 36-107 45-2-5-4-10-7-15-23-38-73-50-111-27-17 10-28 25-34 42-34-8-67-20-99-39-3-1-6-3-9-5 3-5 4-10 6-15 10-43-16-87-59-98-19-5-38-2-54 6-21-33-36-70-44-107 4-2 9-4 14-7 38-23 51-73 27-111-10-17-25-28-42-34 8-34 21-67 39-99 2-3 4-5 6-8 5 2 9 4 15 5 43 11 87-16 98-59 4-19 2-37-6-54 33-20 69-35 107-44 2 5 4 10 7 14 23 39 72 51 111 28 17-10 28-25 34-42 34 7 67 20 98 39 3 1 6 3 9 5-2 5-4 10-5 15-11 43 15 87 59 98z m-237 22c-86 0-155 70-155 155s70 155 155 155 155-69 155-155-69-155-155-155z m0 236c-44 0-80-36-80-81s36-80 80-80 80 36 80 80-36 81-80 81z m530-451c-3 22 5 42 20 56-16 32-43 59-76 76-14-15-34-23-56-19s-39 17-47 36c-36-6-70-23-96-49 10-18 11-40 2-59-10-20-29-32-49-34-6-38 0-75 17-107 20 4 41-1 57-17s21-37 17-57c11-5 23-10 35-13 24-6 48-7 71-3 2 20 14 38 34 48s41 9 59-1c21 21 37 48 45 79 2 6 3 11 4 17-19 8-33 26-37 47z m-92-63c-23-23-60-23-83 0s-23 61 0 84 60 23 83 0 23-61 0-84z" horiz-adv-x="1000" />

<glyph glyph-name="gear" unicode="&#xe83e;" d="M500 467c-64 0-117-52-117-117s53-117 117-117 117 53 117 117-52 117-117 117z m384-62c13 22 33 37 55 45-10 44-26 87-51 129-2 4-5 7-7 11-6-3-13-5-20-7-57-14-114 20-128 77-6 25-3 50 7 71-43 27-91 47-140 58-3-7-6-13-9-19-30-50-96-66-146-36-22 13-37 33-45 55-44-10-87-27-129-51-4-2-7-5-11-7 3-7 5-13 7-20 14-57-20-114-77-128-25-6-50-3-71 7-27-43-47-91-58-140 7-3 13-6 19-9 50-30 66-96 36-146-13-22-33-37-55-45 10-44 27-87 51-129 2-4 5-7 7-11 7 3 13 5 20 7 57 14 114-20 129-77 6-25 2-50-8-71 44-27 91-47 141-58 2 6 5 13 8 19 31 50 96 66 146 36 22-13 37-33 45-55 44 10 88 26 129 51 4 2 7 5 11 7-3 6-5 13-7 20-14 57 21 114 78 128 24 6 49 3 70-7 27 43 47 91 58 140-6 3-13 6-19 9-50 30-66 96-36 146z m-384-247c-106 0-192 86-192 192s86 192 192 192 192-86 192-192-86-192-192-192z" horiz-adv-x="1000" />

<glyph glyph-name="gift" unicode="&#xe83f;" d="M903 800h-806c-12 0-22-10-21-22l4-102h841l3 102c1 12-9 22-21 22z m-478-750l-75 75-75-75v501h-173l22-631c1-11 10-20 22-20h709c11 0 20 9 21 20l22 631h-473z" horiz-adv-x="1000" />

<glyph glyph-name="grid-three-h" unicode="&#xe840;" d="M879 753h-758c-11 0-21-10-21-21v-108c0-12 10-21 21-21h758c11 0 21 9 21 21v108c0 11-10 21-21 21z m0-325h-758c-11 0-21-10-21-21v-108c0-12 10-21 21-21h758c11 0 21 9 21 21v108c0 11-10 21-21 21z m0-325h-758c-11 0-21-10-21-21v-108c0-12 10-21 21-21h758c11 0 21 9 21 21v108c0 11-10 21-21 21z" horiz-adv-x="1000" />

<glyph glyph-name="grid-three" unicode="&#xe841;" d="M278 753h-157c-12 0-21-10-21-22v-157c0-12 9-21 21-21h157c12 0 22 9 22 21v157c0 12-10 22-22 22z m300 0h-157c-12 0-21-10-21-22v-157c0-12 9-21 21-21h157c12 0 22 9 22 21v157c0 12-10 22-22 22z m300 0h-157c-12 0-21-10-21-22v-157c0-12 9-21 21-21h157c12 0 22 9 22 21v157c0 12-10 22-22 22z m-600-300h-157c-12 0-21-10-21-22v-157c0-12 9-21 21-21h157c12 0 22 9 22 21v157c0 12-10 22-22 22z m300 0h-157c-12 0-21-10-21-22v-157c0-12 9-21 21-21h157c12 0 22 9 22 21v157c0 12-10 22-22 22z m300 0h-157c-12 0-21-10-21-22v-157c0-12 9-21 21-21h157c12 0 22 9 22 21v157c0 12-10 22-22 22z m-600-300h-157c-12 0-21-10-21-21v-158c0-12 9-21 21-21h157c12 0 22 9 22 21v158c0 11-10 21-22 21z m300 0h-157c-12 0-21-10-21-21v-158c0-12 9-21 21-21h157c12 0 22 9 22 21v158c0 11-10 21-22 21z m300 0h-157c-12 0-21-10-21-21v-158c0-12 9-21 21-21h157c12 0 22 9 22 21v158c0 11-10 21-22 21z" horiz-adv-x="1000" />

<glyph glyph-name="hand-fucek" unicode="&#xe842;" d="M779 50h-512c-12 0-21-9-21-21v-108c0-12 9-21 21-21h512c12 0 21 9 21 21v108c0 12-9 21-21 21z m-9 334l-202 62-37 335c-1 11-10 19-21 19h-90c-11 0-20-8-21-19l-29-273-94 29c-23 7-48-7-54-32l-44-194c-2-9-1-18 2-26l60-147c4-8 11-13 20-13l519 0c12 0 21 10 21 22v196c0 19-12 35-30 41z" horiz-adv-x="1000" />

<glyph glyph-name="hand-like" unicode="&#xe843;" d="M179 470h-108c-11 0-21-10-21-22v-434c0-12 10-22 21-22h108c12 0 21 10 21 22v434c0 12-9 22-21 22z m711 23h-315l73 128c18 30 20 67 5 99l-32 68c-6 14-25 16-35 5l-280-319c-3-4-5-9-5-14v-446c0-12 10-22 21-22h422c18 0 35 12 41 29l145 416c10 27-11 56-40 56z" horiz-adv-x="1000" />

<glyph glyph-name="hand-looser" unicode="&#xe844;" d="M926 708h-107c-12 0-22-10-22-21v-435c0-12 10-21 22-21h107c12 0 21 9 21 21v434c0 12-9 22-21 22z m-251 0h-422c-18 0-34-12-40-29l-146-416c-10-27 11-56 40-56h316l-74-127c-18-31-19-68-4-100l31-68c7-14 25-16 36-5l279 320c4 4 5 9 5 14v445c0 12-9 22-21 22z" horiz-adv-x="1000" />

<glyph glyph-name="home" unicode="&#xe845;" d="M891 533l-379 259c-7 5-17 5-24 0l-379-259c-5-4-9-10-9-17v-545c0-12 10-21 21-21h255v256c0 12 9 21 21 21h206c12 0 21-9 21-21v-256h255c11 0 21 9 21 21v545c0 7-3 13-9 17z m-277-206c0-11-9-21-21-21h-186c-12 0-21 10-21 21v8c0 12 9 21 21 21h186c12 0 21-9 21-21z" horiz-adv-x="1000" />

<glyph glyph-name="inbox" unicode="&#xe846;" d="M929 752h-852c-11 0-21-10-21-21v-544-198-42c0-12 10-21 21-21h43 766 43c12 0 21 9 21 21v42 198 544c0 11-9 21-21 21z m-54-501h-175l-35-106c-9-26-33-44-61-44h-208c-27 0-52 18-60 44l-36 106h-169v426h744z m-654 100h558c12 0 21 9 21 21v33c0 11-9 21-21 21h-558c-11 0-21-10-21-21v-33c0-12 10-21 21-21z m0 175h558c12 0 21 10 21 21v33c0 12-9 21-21 21h-558c-11 0-21-9-21-21v-33c0-11 10-21 21-21z" horiz-adv-x="1000" />

<glyph glyph-name="key" unicode="&#xe847;" d="M935 69l-23 23c-8 8-22 8-30 0l-61-61-57 57 61 61c8 8 8 22 0 30l-23 23c-8 8-22 8-30 0l-61-61-215 215 81 81c25 25 25 66 0 91l-204 204c-25 25-65 25-90 0l-205-204c-25-25-25-66 0-91l204-204c25-25 65-25 90 0l71 70 336-336c11-12 27-18 42-18s31 6 42 18l72 72c8 8 8 21 0 30z" horiz-adv-x="1000" />

<glyph glyph-name="layout" unicode="&#xe848;" d="M878 23h-433c-11 0-21-9-21-21v-33c0-11 10-21 21-21h433c12 0 22 10 22 21v33c0 12-10 21-22 21z m0 178h-433c-11 0-21-10-21-22v-32c0-12 10-21 21-21h433c12 0 22 9 22 21v32c0 12-10 22-22 22z m0 175h-433c-11 0-21-9-21-21v-32c0-12 10-22 21-22h433c12 0 22 10 22 22v32c0 12-10 21-22 21z m1 374h-758c-11 0-21-9-21-21v-108c0-11 10-21 21-21h758c12 0 21 10 21 21v108c0 12-9 21-21 21z m-548-225h-210c-11 0-21-9-21-21v-534c0-12 10-21 21-21h210c12 0 21 9 21 21v534c0 12-9 21-21 21z" horiz-adv-x="1000" />

<glyph glyph-name="lightbulb" unicode="&#xe849;" d="M785 518c0 158-127 285-285 285s-285-127-285-285c0-52 14-100 38-142h0l56-101c7-12 14-25 20-38 0-1 1-2 1-3 6-13 11-25 16-38 6-17 11-33 16-50 2-9 4-18 6-27 0-2 1-3 1-5 2-10 4-21 6-32 4-25 6-51 6-77v-36c0-12 9-21 21-21h30c11-27 37-47 67-47s57 20 67 47h33c11 0 21 9 21 21v36c0 26 2 52 6 77 1 11 3 22 5 32 0 2 1 3 1 5 2 9 4 18 7 27 4 17 10 33 16 50 4 13 10 25 15 38 1 1 1 2 2 3 6 13 12 26 19 38l56 101h0c24 42 38 90 38 142z m-331-486c0 17-2 34-4 50h100c-2-16-3-33-4-50z m-15 114c-4 16-8 33-14 50h150c-5-17-10-34-14-50z" horiz-adv-x="1000" />

<glyph glyph-name="line-chart" unicode="&#xe84a;" d="M928 750h-857c-12 0-21-9-21-21v-758c0-12 9-21 21-21h857c12 0 22 9 22 21v758c0 12-10 21-22 21z m-479-725h-75v202c0 12 9 22 21 22h33c11 0 21-10 21-22z m207 0h-75v304c0 12 10 21 21 21h33c12 0 21-9 21-21z m0 430c0-12-9-21-21-21h-33c-11 0-21 9-21 21v75l-418-418c-8-9-22-9-30 0l-23 23c-8 8-8 21 0 30l420 419h-79c-12 0-22 10-22 22v32c0 12 10 21 22 21h184c12 0 21-9 21-21z m207-430h-75v604c0 12 9 21 21 21h32c12 0 22-9 22-21z" horiz-adv-x="1000" />

<glyph glyph-name="link-intact" unicode="&#xe84b;" d="M783 549h-47c-21 0-42-9-57-24l-34-34c-8-8-8-22 0-30l23-23c9-8 22-8 30 0l34 34c2 1 3 1 4 2h47c51 0 93-42 93-93v-61c0-51-42-93-93-93h-207c-1 1-3 1-4 2l-172 172c-8 8-21 8-30 0l-23-23c-8-9-8-22 0-30l172-172c15-15 35-24 57-24h207c92 0 167 76 167 168v61c1 92-74 168-167 168z m-451-285c-8 8-22 8-30 0l-35-35c-2-1-3-1-4-2h-47c-51 0-93 42-93 93v61c0 51 42 92 93 92h207c1 0 2-1 4-1l171-172c9-8 22-8 30 0l23 23c9 8 9 22 0 30l-171 172c-15 15-36 24-57 24h-207c-93 0-168-76-168-168v-61c0-93 75-168 168-168h47c21 0 41 9 57 24l35 35c8 8 8 22 0 30z" horiz-adv-x="1000" />

<glyph glyph-name="list-important" unicode="&#xe84c;" d="M904 666h-458c-12 0-22-10-22-22v-32c0-12 10-21 22-21h458c12 0 21 9 21 21v32c0 12-9 22-21 22z m-751-315h-57c-12 0-21-9-21-21v-32c0-12 9-22 21-22h57c12 0 22 10 22 22v32c0 12-10 21-22 21z m121-21v-32c0-12 10-22 22-22h608c11 0 21 10 21 22v32c0 12-10 21-21 21h-608c-12 0-22-9-22-21z m-121-281h-57c-12 0-21-9-21-21v-33c0-11 9-21 21-21h57c12 0 22 10 22 21v33c0 12-10 21-22 21z m751 0h-608c-12 0-22-9-22-21v-33c0-11 10-21 22-21h608c11 0 21 10 21 21v33c0 12-9 21-21 21z m-797 430l213 129c14 8 14 28 0 36l-212 128c-14 9-32-1-32-18l-1-257c0-17 18-27 32-18z" horiz-adv-x="1000" />

<glyph glyph-name="list" unicode="&#xe84d;" d="M154 725h-58c-11 0-21-10-21-21v-33c0-12 10-21 21-21h58c11 0 21 9 21 21v33c0 11-10 21-21 21z m750 0h-608c-12 0-21-10-21-21v-33c0-12 9-21 21-21h608c12 0 21 9 21 21v33c0 11-9 21-21 21z m-750-339h-58c-11 0-21-9-21-21v-32c0-12 10-22 21-22h58c11 0 21 10 21 22v32c0 12-10 21-21 21z m142-75h483c12 0 21 10 21 22v32c0 12-9 21-21 21h-483c-12 0-21-9-21-21v-32c0-12 9-22 21-22z m-142-263h-58c-11 0-21-9-21-21v-33c0-11 10-21 21-21h58c11 0 21 10 21 21v33c0 12-10 21-21 21z m750 0h-608c-12 0-21-9-21-21v-33c0-11 9-21 21-21h608c12 0 21 10 21 21v33c0 12-9 21-21 21z" horiz-adv-x="1000" />

<glyph glyph-name="load" unicode="&#xe84e;" d="M655 329c-9 14-9 32 0 47l161 279c17 29 17 66 0 96s-49 48-83 48h-465c-34 0-66-18-83-48-18-30-18-67 0-96l161-279c8-15 8-33 0-47l-161-279c-18-30-18-67 0-96s49-49 83-49h464c35 0 67 19 84 49 17 29 17 66 0 96z m-387 395h464c9 0 15-5 19-11l-120-82c-79-54-183-54-262 0l-120 82c4 6 10 11 19 11z m-19-711l161 278c11 19 16 39 17 59h147c0-20 6-40 16-59l161-278c4-7 4-14 1-20l-120 82c-79 54-184 54-263 0l-120-82c-3 6-3 13 0 20z" horiz-adv-x="1000" />

<glyph glyph-name="location" unicode="&#xe84f;" d="M800 501c0 166-134 300-300 300s-300-134-300-300c0-55 15-106 41-151h0l226-430h1c6-11 18-19 32-19s27 8 33 19h0l226 430h0c26 44 41 96 41 151z m-300-150c-83 0-150 67-150 150s67 150 150 150 150-67 150-150-67-150-150-150z" horiz-adv-x="1000" />

<glyph glyph-name="lock-open" unicode="&#xe850;" d="M929 451h-378v99c0 144-122 260-268 250-133-9-234-126-234-259v-68c0-12 10-22 22-22h32c12 0 21 10 21 22v77c0 104 92 188 199 174 89-11 153-91 153-180v-93h-205c-12 0-21-9-21-21v-509c0-12 9-21 21-21h658c12 0 21 9 21 21v509c1 12-9 21-21 21z m-304-356c0-11-9-21-21-21h-8c-11 0-21 10-21 21l1 161c0 12 9 21 21 21h7c12 0 22-9 22-21z" horiz-adv-x="1000" />

<glyph glyph-name="lock" unicode="&#xe851;" d="M829 451h-78v99c0 138-112 251-251 251s-251-113-251-251v-99h-78c-12 0-21-9-21-21v-509c0-12 9-21 21-21h658c12 0 21 9 21 21v509c0 12-9 21-21 21z m-505 99c0 97 79 176 176 176s176-79 176-176v-99h-352z m201-455c0-11-10-21-21-21h-8c-12 0-21 10-21 21l0 161c0 9 6 16 13 19h25c7-3 13-11 13-19z" horiz-adv-x="1000" />

<glyph glyph-name="map" unicode="&#xe852;" d="M689 536c-50 0-92-41-92-92s42-92 92-92 92 41 92 92-41 92-92 92z m240 167h-858c-12 0-21-10-21-21v-661c0-5 2-11 6-15 4-3 9-6 15-6h858c5 0 11 3 15 6s6 10 6 15v661c0 11-10 21-21 21z m-783-353h267v-75h-267c-12 0-21 10-21 22v32c0 12 9 21 21 21z m702 1l-139-263h0c-4-7-11-12-20-12v-1h-543c-12 0-21 10-21 22v32c0 12 9 21 21 21h490l-106 201h0c-16 28-25 59-25 93 0 100 80 181 179 184h11c99-3 178-84 178-184 1-34-9-65-25-93z" horiz-adv-x="1000" />

<glyph glyph-name="message-double" unicode="&#xe853;" d="M50 554v-530c0-12 9-21 21-21h79l60-79c9-11 25-11 34 0l60 79h374 75c12 0 22 9 22 21v28 40 483h-704c-12 0-21-9-21-21z m75-173c0 11 10 21 21 21h285c12 0 22-10 22-21v-8c0-12-10-21-22-21h-285c-11 0-21 9-21 21z m0-150c0 12 10 22 21 22h186c12 0 21-10 21-22v-7c0-12-9-21-21-21h-186c-11 0-21 9-21 21z m804 519h-708c-11 0-21-9-21-21v-104h578c26 0 47-21 47-46v-426h104c11 0 21 9 21 21v555c0 12-10 21-21 21z" horiz-adv-x="1000" />

<glyph glyph-name="menu" unicode="&#xe854;" d="M50 641v-32c0-12 10-21 21-21h858c12 0 21 9 21 21v32c0 12-9 22-21 22h-858c-11 0-21-10-21-22z m21-603h858c12 0 21 9 21 21v32c0 12-9 22-21 22h-858c-11 0-21-10-21-22v-32c0-12 10-21 21-21z m54 328v-32c0-12 10-21 21-21h708c12 0 21 9 21 21v32c0 12-9 22-21 22h-708c-11 0-21-10-21-22z" horiz-adv-x="1000" />

<glyph glyph-name="message" unicode="&#xe855;" d="M925 725h-849c-14 0-26-11-26-24v-627c0-13 12-24 26-24h104l91-119c9-11 25-11 34 0l91 119h529c14 0 25 11 25 24v627c0 13-11 24-25 24z m-471-428c0-12-9-21-21-21h-232c-11 0-21 9-21 21v7c0 12 10 22 21 22h232c12 0 21-10 21-22z m120 179c0-11-10-21-22-21h-351c-11 0-21 10-21 21v8c0 12 10 21 21 21h351c12 0 22-9 22-21z" horiz-adv-x="1000" />

<glyph glyph-name="mobile" unicode="&#xe856;" d="M736 800h-471c-35 0-64-28-64-64v-772c0-36 29-64 64-64h471c35 0 63 28 63 64v772c1 36-28 64-63 64z m-186-811c0-12-9-22-21-22h-57c-12 0-22 10-22 22v7c0 12 10 22 22 22h57c12 0 21-10 21-22z m96 693c-5-19-22-32-41-32h-209c-20 0-37 13-41 32l-17 68h325z" horiz-adv-x="1000" />

<glyph glyph-name="monitor" unicode="&#xe857;" d="M779-24h-558c-11 0-21-9-21-21v-32c0-12 10-22 21-22h558c12 0 21 10 21 22v32c0 12-9 21-21 21z m150 775h-858c-11 0-21-10-21-22v-607c0-12 10-21 21-21h858c12 0 21 9 21 21v607c0 12-9 22-21 22z m-654-102c0-12-10-22-21-22h-108c-11 0-21 10-21 22v7c0 12 10 21 21 21h107c12 0 22-9 22-21v-7z" horiz-adv-x="1000" />

<glyph glyph-name="more-h" unicode="&#xe858;" d="M229 400h-57c-12 0-22-9-22-21v-57c0-12 10-21 22-21h57c11 0 21 9 21 21v57c0 12-10 21-21 21z m300 0h-57c-12 0-22-9-22-21v-57c0-12 10-21 22-21h57c11 0 21 9 21 21v57c0 12-10 21-21 21z m300 0h-57c-12 0-22-9-22-21v-57c0-12 10-21 22-21h57c11 0 21 9 21 21v57c0 12-10 21-21 21z" horiz-adv-x="1000" />

<glyph glyph-name="more-v" unicode="&#xe859;" d="M529 700h-57c-12 0-22-10-22-21v-57c0-12 10-22 22-22h57c11 0 21 10 21 22v57c0 11-10 21-21 21z m0-300h-57c-12 0-22-10-22-21v-57c0-12 10-22 22-22h57c11 0 21 10 21 22v57c0 11-10 21-21 21z m0-300h-57c-12 0-22-10-22-21v-57c0-12 10-22 22-22h57c11 0 21 10 21 22v57c0 11-10 21-21 21z" horiz-adv-x="1000" />

<glyph glyph-name="panel" unicode="&#xe85a;" d="M948 324c-5 45-16 89-33 129-12 27-26 52-42 76-24 36-53 68-87 96-78 64-177 103-286 103s-209-39-286-103c-34-28-63-60-87-96-17-24-30-49-42-76-17-40-28-84-33-129-1-15-2-31-2-46 0-44 6-86 18-125 15-53 40-102 73-145 8-11 16-21 25-31h335 2 331c72 80 116 185 116 301 0 15-1 31-2 46z m-101-130c-3-11-16-17-28-14l-7 3c-11 3-16 15-14 25 7 26 11 52 11 79 0 5-1 11-1 16l50 3c0-7 1-13 1-19 0-31-4-63-12-93z m-82 335c21-23 38-47 52-74 6-11 1-24-10-29l-7-3c-11-5-22 0-28 10-12 22-26 42-43 60-8 9-8 22 0 30l5 5c9 9 23 10 31 1z m-258 95c0 12 11 22 22 21 31-3 60-9 89-19 11-4 16-17 12-28l-3-7c-5-11-17-15-27-12-24 8-48 14-73 16-12 1-20 10-20 21z m-336-194c4 11 18 15 29 10l6-4c11-5 14-17 10-28-10-23-17-46-21-71-2-11-11-20-23-19l-7 1c-12 1-21 12-19 24 4 30 13 59 25 87z m5-236l7 2c11 3 22-3 26-14 9-23 20-45 34-66 6-10 5-22-4-29l-6-5c-10-7-24-5-31 5-17 25-30 52-40 80-4 11 3 24 14 27z m105 339l-5 6c-8 9-7 23 2 30 24 19 50 34 78 47 11 4 23-1 28-13l2-7c4-11-1-22-12-27-22-10-44-23-63-38-9-7-22-7-30 2z m104-481c-8 17-12 35-12 54 0 65 48 118 110 127l108 178-4-208c27-24 44-58 44-97 0-19-5-37-12-54z" horiz-adv-x="1000" />

<glyph glyph-name="phone" unicode="&#xe85b;" d="M652 203l-111-27c-35 43-68 90-97 141-29 51-54 103-75 157l79 82c5 6 7 15 4 22l-75 201c-4 12-19 17-30 11l-47-28-110-63c-8-5-12-14-11-23 26-145 77-288 155-423 78-135 177-250 290-344 7-6 16-7 24-2l158 91c11 7 14 22 5 32l-137 166c-5 6-14 9-22 7z" horiz-adv-x="1000" />

<glyph glyph-name="pin" unicode="&#xe85c;" d="M932 371l-257 49v133c0 14-13 24-26 21l-451-90-118 56c-14 7-30-4-30-19v-331c0-16 16-26 30-19l120 56 449-89c13-3 26 7 26 20v123l257 49c23 4 23 37 0 41z" horiz-adv-x="1000" />

<glyph glyph-name="rank-heart-half" unicode="&#xe85d;" d="M697 738c-82 0-153-41-196-103-22 31-50 57-84 75-1 0-2 0-3 1-7 4-15 7-23 11-2 0-4 1-6 2-7 2-14 4-21 6-5 2-9 2-14 3-5 1-10 2-15 3-10 1-20 2-30 2-131 0-237-107-237-238 0-193 182-359 291-440l141-106 1-1 142 107c109 81 291 247 291 440 0 131-106 238-237 238z m-99-618l-97-73-1 1v456l1-1 62 89c30 45 80 71 134 71 89 0 162-73 162-163 0-167-182-321-261-380z" horiz-adv-x="1000" />

<glyph glyph-name="rank-heart" unicode="&#xe85e;" d="M501-47l-142 107c-109 81-291 247-291 440 0 131 106 238 237 238 81 0 153-41 196-103 43 62 114 103 196 103 131 0 237-107 237-238 0-193-182-359-291-440z" horiz-adv-x="1000" />

<glyph glyph-name="rank-star-half" unicode="&#xe85f;" d="M910 478l-266 44-124 240c-4 8-12 11-19 11-1 0-1 0-1 0-4 0-7-1-10-3-4-2-6-4-8-8l-124-240-267-44c-12-2-19-14-17-25 1-4 3-8 6-11l190-192-41-267c-1-3 0-6 0-9 1 0 1-1 1-1 1-3 2-5 4-7 0 0 0-1 1-1 1-2 3-3 5-4 1 0 1-1 2-1 2-1 5-1 7-2 0 0 1 0 1 0s1 0 1 0c3 1 6 1 8 2l113 57 128 65 1 0 241-122c3-1 7-2 10-2 12 0 23 11 21 25l-41 267 190 192c12 12 5 33-12 36z m-231-175l-27-27 6-37 25-164-148 74-34 17-1 0v468l1 1 76-148 17-33 38-6 163-27z" horiz-adv-x="1000" />

<glyph glyph-name="rank-star" unicode="&#xe860;" d="M520 762l124-240 266-44c17-3 24-24 12-36l-190-192 41-267c2-17-16-30-31-22l-241 121-241-121c-16-8-34 5-31 22l41 267-190 192c-12 12-6 33 11 36l267 44 124 240c8 15 30 15 38 0z" horiz-adv-x="1000" />

<glyph glyph-name="save-v" unicode="&#xe861;" d="M744-83l-234 127c-6 4-14 4-20 0l-234-127c-14-8-31 2-31 19v843c0 12 9 21 21 21h508c12 0 22-9 22-21v-843c0-16-18-27-32-19z" horiz-adv-x="1000" />

<glyph glyph-name="search" unicode="&#xe862;" d="M575 737c-186 0-338-151-338-338 0-79 28-152 74-210l-172-173c-9-8-9-22 0-30l23-23c8-8 21-8 30 0l172 173c58-46 131-74 211-74 186 0 338 151 338 338 0 186-152 337-338 337z m0-600c-145 0-263 117-263 262 0 145 118 263 263 263s263-118 263-263c0-144-118-262-263-262z" horiz-adv-x="1000" />

<glyph glyph-name="security" unicode="&#xe863;" d="M150 736v-490c0-104 59-200 153-247l188-94c2-1 5-1 7-1 1 0 1-1 2-1 3 0 7 1 10 2l188 94c93 47 152 143 152 247v490c0 12-10 22-21 22-2 0-4-1-6-1-35-11-72-17-110-17-74 0-143 21-202 57-3 2-6 3-9 3-1 0-1 0-2 0-1 0-3 0-4-1h-1c-2 0-4-1-6-2-44-27-93-45-147-53-17-2-36-4-54-4-39 0-76 6-111 17-2 0-4 1-6 1-1 0-1-1-2-1-1 0-2 0-4-1-1 0-3-1-5-2-1 0-1-1-2-2-2-1-3-2-4-4-1-1-1-2-2-3-1-2-2-5-2-9z m352-751v731c65-33 137-51 211-51 21 0 41 2 62 5v-424c0-76-42-145-111-179z" horiz-adv-x="1000" />

<glyph glyph-name="send" unicode="&#xe864;" d="M908 369l-745 339c-16 7-33-7-30-24l55-271 159-42c21-6 21-36 0-41l-159-42-55-272c-3-17 14-31 30-24l745 339c16 7 16 31 0 38z" horiz-adv-x="1000" />

<glyph glyph-name="share" unicode="&#xe865;" d="M886 201h-172c-26 0-48-15-58-37l-306 154v88l170 113c11-11 27-18 44-18h172c36 0 64 29 64 64v173c0 35-28 63-64 63h-172c-35 0-64-28-64-63v-142l-169-113c-12 11-27 18-45 18h-172c-35 0-64-28-64-63v-173c0-35 29-64 64-64h172c26 0 47 15 58 36l306-154v-118c0-36 29-64 64-64h172c36 0 64 28 64 64v172c0 36-28 64-64 64z" horiz-adv-x="1000" />

<glyph glyph-name="shopping-bag" unicode="&#xe866;" d="M387 614c0 62 50 112 112 112s113-50 113-112v-114h75v114c0 103-84 187-188 187s-187-84-187-187v-114h75z m413-135c0 12-9 21-21 21h-92v-54c0-12-10-21-21-21h-33c-12 0-21 9-21 21v54h-225v-54c0-12-10-21-21-21h-33c-12 0-21 9-21 21v54h-92c-12 0-21-9-21-21l-24-532c0-12 10-23 22-23h605c12 0 22 10 21 23z" horiz-adv-x="1000" />

<glyph glyph-name="shopping-cart" unicode="&#xe867;" d="M666 24c-3-7-5-16-5-25 0-41 34-75 75-75s75 34 75 75c0 9-1 18-4 25z m-311 0c-3-7-5-16-5-25 0-41 34-75 75-75s75 34 75 75c0 9-2 18-4 25z m586 575c3 14-7 26-21 26h-631l-24 107c-2 10-11 17-21 17h-173c-11 0-21-10-21-21v-33c0-12 10-21 21-21h130l11-49 16-74 90-407h0l12-53c2-10 10-17 20-17h459c10 0 19 7 21 17l7 33c3 14-7 26-20 26h-403c-10 0-19 7-21 17l-1 7c-3 13 7 26 21 26h424c10 0 19 7 21 16z" horiz-adv-x="1000" />

<glyph glyph-name="sign-lightning" unicode="&#xe868;" d="M728 231l-142 126c-7 6-10 16-6 25l157 338c7 14-4 30-19 30h-296c-8 0-15-4-19-12l-195-386c-4-9-2-20 6-26l141-112c8-6 10-16 6-25l-102-227c-9-19 12-38 30-27l436 262c13 8 14 25 3 34z" horiz-adv-x="1000" />

<glyph glyph-name="sign-photo" unicode="&#xe869;" d="M929 726h-858c-11 0-21-9-21-21v-709c0-12 10-21 21-21h858c12 0 21 9 21 21v709c0 12-9 21-21 21z m-705-77c55 0 100-45 100-99s-45-100-100-100-99 45-99 100c0 55 45 99 99 99z m-78-583c-19 0-28 23-15 36l227 226c8 9 21 9 30 0l88-88-175-175z m748-1l-243 1 0-1-279 1 140 139 212 212c8 9 22 9 30 0l140-140z" horiz-adv-x="1000" />

<glyph glyph-name="sign-video" unicode="&#xe86a;" d="M948 713c-3 8-10 13-19 13h-858c-8 0-16-5-19-13-1-2-2-5-2-8v-67-50-475-50-67c0-3 1-6 2-8 3-8 11-13 19-13h858c9 0 16 5 19 13 1 2 2 5 2 8v67 50 475 50 67c0 3 0 6-2 8z m-94-650h-708c-11 0-21 10-21 22v7c0 12 10 21 21 21h708c12 0 21-9 21-21v-7c0-12-9-22-21-22z m-438 176l1 224c0 16 18 27 32 18l184-111c14-9 14-28 0-37l-185-112c-14-9-32 2-32 18z m438 349h-708c-11 0-21 10-21 22v7c0 12 10 21 21 21h708c12 0 21-9 21-21v-7c0-12-9-22-21-22z" horiz-adv-x="1000" />

<glyph glyph-name="social-android-square" unicode="&#xe86b;" d="M576 551c-7 0-13-6-13-14 0-7 6-13 13-13s14 6 14 13-6 14-14 14z m-150 0c-7 0-14-6-14-14 0-7 7-13 14-13 8 0 14 6 14 13 0 8-6 14-14 14z m443 199h-741c-17 0-31-14-31-31v-741c0-17 14-31 31-31h741c17 0 31 14 31 31v741c0 17-14 31-31 31z m-546-500c0-20-16-37-36-37s-37 16-37 37v153c0 20 17 37 37 37 20 0 37-17 37-37v-153z m303-94h-27v-81c0-20-16-36-37-36s-36 16-36 36v81h-50v-81c0-20-16-36-36-36s-37 16-37 36v81h-26c-22 0-39 18-39 39v238h327v-238c0-21-17-39-39-39z m-290 308c0 56 34 106 85 132l-26 46c-1 3 0 6 2 7 3 2 6 1 7-2l26-47c22 10 46 15 71 15 26 0 50-5 72-15l26 48c1 2 4 3 7 2 2-2 3-5 2-7l-26-47c51-26 84-75 84-132z m380-251c-20 0-37 17-37 37v153c0 20 17 37 37 37 20 0 36-17 36-37v-153c0-20-16-37-36-37z" horiz-adv-x="1000" />

<glyph glyph-name="social-android" unicode="&#xe86c;" d="M198 478c-28 0-51-23-51-51v-215c0-28 23-51 51-51s52 23 52 51v215c0 28-23 51-52 51m414 218l35 65c2 4 1 8-2 10-4 2-8 0-10-3l-36-66c-31 14-65 21-101 21s-70-7-100-21l-36 66c-2 3-6 5-10 3-3-2-4-7-2-10l35-65c-70-37-117-106-117-185h461c0 80-47 149-117 185m-219-101c-10 0-19 9-19 19 0 11 9 19 19 19 11 0 20-8 20-19 0-10-9-19-20-19m211 0c-11 0-20 9-20 19s9 19 20 20c10 0 19-9 19-20 0-10-9-19-19-19m-334-127v-332c0-30 24-55 54-55h38v-114c0-28 23-51 51-51s51 23 51 51v114h69v-114c0-28 23-51 52-51s51 23 51 51v114h37c30 0 55 25 55 55v332z m580-41c0 28-23 51-51 51s-52-23-52-51v-214c0-29 23-52 52-52s51 23 51 52z" horiz-adv-x="1000" />

<glyph glyph-name="social-apple-square" unicode="&#xe86d;" d="M868 750h-740c-17 0-31-14-31-31v-741c0-17 14-31 31-31h740c17 0 31 14 31 31v741c0 17-13 31-31 31z m-336-131c22 26 62 47 93 48 5-37-10-74-32-102-23-26-59-47-94-44-5 36 13 74 33 98z m181-507c-26-39-53-77-96-78-43-1-57 25-105 25-49 0-64-24-104-26-41-2-73 41-100 80-54 79-96 222-39 320 27 48 77 78 130 79 41 1 80-28 105-28 25 0 72 35 121 30 21-1 79-8 116-63-3-2-69-41-68-121 1-96 84-128 85-128-1-2-14-46-45-90z" horiz-adv-x="1000" />

<glyph glyph-name="social-apple" unicode="&#xe86e;" d="M718 331c-1 105 86 157 90 159-50 72-126 82-153 83-65 6-127-39-160-39-33 0-84 38-138 37-70-1-136-42-172-105-74-128-19-317 52-421 36-51 77-108 132-106 53 2 73 34 137 34 64 0 82-34 138-32 57 0 93 51 127 102 41 58 58 116 58 119-1 0-110 42-111 169z m-105 310c28 35 48 84 43 134-42-2-94-29-123-64-27-31-50-81-44-129 46-3 94 24 124 59z" horiz-adv-x="1000" />

<glyph glyph-name="social-fb-square" unicode="&#xe86f;" d="M871 749h-742c-15 0-28-12-28-28v-742c0-16 13-28 28-28h398v309h-104v121h104v88c0 104 63 160 155 160 44 0 82-4 93-5v-108h-63c-50 0-60-24-60-59v-77h119l-15-120h-104v-310h219c16 0 28 13 28 28v743c0 16-12 28-28 28z" horiz-adv-x="1000" />

<glyph glyph-name="social-fb" unicode="&#xe870;" d="M849 787h-742c-37 0-66-30-66-66v-742c0-36 30-66 66-66h742c36 0 65 30 65 66v742c1 36-29 66-65 66z m-9-799h-209v272h104l16 121h-120v77c0 35 10 58 60 58h64v108c-11 2-49 5-93 5-92 0-155-56-155-159v-89h-104v-121h104v-272h-391v724h724z" horiz-adv-x="1000" />

<glyph glyph-name="social-git-square" unicode="&#xe871;" d="M869 751h-740c-17 0-31-14-31-31v-741c0-17 13-31 31-31h740c17 0 31 14 31 31v741c0 17-14 31-31 31z m-286-551c16-13 30-40 30-81 0-59 0-106 0-121h-218c0 11-1 38-1 75-122-26-148 59-148 59-20 51-48 64-48 64-40 27 3 27 3 27 44-3 67-45 67-45 39-67 103-48 128-37 4 29 15 48 27 59-97 11-200 49-200 217 0 48 17 87 46 118-5 11-20 55 4 116 0 0 37 12 121-45 35 10 72 14 110 15 37-1 74-5 110-15 83 57 120 45 120 45 24-61 9-105 4-116 29-31 46-70 46-118 0-169-103-206-201-217z" horiz-adv-x="1000" />

<glyph glyph-name="social-git" unicode="&#xe872;" d="M594 168c115 13 236 57 236 255 0 56-20 103-53 139 5 13 23 65-6 136 0 0-43 14-141-53-42 12-86 17-130 18-44-1-88-6-129-18-98 67-142 53-142 53-28-71-10-123-5-136-33-36-53-83-53-139 0-198 120-242 235-255-15-13-28-36-33-69-29-13-104-36-150 43 0 0-27 49-79 53 0 0-50 1-3-31 0 0 33-16 57-76 0 0 30-101 174-69 0-43 1-76 1-88h256c0 17 0 73 0 142 0 48-16 79-35 95z" horiz-adv-x="1000" />

<glyph glyph-name="social-google-square" unicode="&#xe873;" d="M869 750h-740c-17 0-31-14-31-31v-741c0-17 13-31 31-31h740c17 0 31 14 31 31v741c0 17-14 31-31 31z m-150-576c-69-97-207-125-315-84-108 41-185 156-176 272 3 143 134 268 276 263 69 3 133-27 185-68-22-26-45-50-70-73-63 43-152 56-215 6-90-63-94-210-8-276 84-77 243-39 267 78-53 1-106 0-159 2 0 31 0 63 0 94 88 0 176 1 265 0 5-74-5-153-50-214z" horiz-adv-x="1000" />

<glyph glyph-name="social-google" unicode="&#xe874;" d="M109 370c4 206 193 386 399 379 99 5 192-38 267-98-32-37-66-72-101-105-91 62-221 80-311 8-130-90-136-302-11-399 121-111 351-56 385 113-76 1-153 0-229 3 0 45 0 91 0 136 127 0 255 0 382-1 8-107-6-220-72-309-100-140-299-181-455-121-156 60-267 225-254 394z" horiz-adv-x="1000" />

<glyph glyph-name="social-ig-square" unicode="&#xe875;" d="M499 504c-85 0-154-69-154-154s69-155 154-155 154 69 154 155-69 154-154 154z m0-254c-55 0-100 44-100 100 0 55 44 100 100 100 55 0 100-45 100-100 0-56-45-100-100-100z m160 296c-20 0-36-16-36-36 0-20 16-36 36-36 20 0 36 16 36 36 0 20-16 36-36 36z m210 205h-740c-17 0-31-14-31-31v-741c0-17 13-31 31-31h740c17 0 31 14 31 31v741c0 17-14 31-31 31z m-72-525c-1-32-6-54-14-73-7-20-18-37-34-53s-34-27-54-35c-19-8-41-13-73-14s-42-2-124-2c-81 0-91 0-124 2-32 1-53 6-73 14-19 8-36 18-53 35s-27 33-35 53c-7 19-12 41-14 73s-1 42-1 124c0 81 0 92 1 124 2 32 7 54 14 73 8 20 18 36 35 53s34 27 53 35c19 7 41 12 73 14 33 1 43 1 125 1 81 0 92 0 124-2 32-1 54-6 73-14 20-7 36-18 53-34s27-34 35-54c7-19 12-41 14-73s2-42 2-124c-1-81-1-91-3-123z" horiz-adv-x="1000" />

<glyph glyph-name="social-ig" unicode="&#xe876;" d="M901 515c-2 42-9 71-19 97-10 26-23 48-46 71s-44 35-70 46c-26 10-55 16-97 18-43 2-57 3-165 3s-122-1-165-3c-42-2-71-9-97-18-26-11-49-24-71-46s-36-45-46-71c-10-26-17-55-18-97-2-43-3-56-3-165s1-122 3-165c2-42 8-71 18-97 10-26 24-48 46-70s45-36 71-47c25-10 54-16 97-18 42-2 56-3 165-3s122 1 164 3c43 2 72 9 97 18 27 11 49 24 71 47s36 44 46 70c10 26 17 55 19 97 2 43 2 57 2 165 0 109 0 122-2 165z m-72-326c-2-39-8-60-14-75-7-18-16-32-30-46s-27-22-46-30c-14-5-35-12-74-13-42-2-55-3-162-3s-119 1-161 3c-39 1-60 8-74 13-19 8-32 16-46 30s-23 28-30 46c-6 14-12 36-14 75-1 42-2 54-2 161s1 119 2 162c2 39 9 60 14 74 7 19 16 32 30 46s27 23 46 30c14 5 35 12 74 14 43 2 55 2 162 2s119-1 161-2c39-2 60-9 75-14 18-7 32-16 46-30s22-27 30-46c5-14 12-35 13-74 2-43 3-55 3-162-1-107-1-119-3-161z m-325 366c-113 0-205-91-205-205 0-113 91-205 205-205 113 0 205 92 205 205 0 113-92 205-205 205z m0-338c-74 0-133 60-133 133s59 133 133 133 133-59 133-133c0-73-60-133-133-133z m213 394c-26 0-48-21-48-48s22-48 48-48 48 22 48 48c0 27-21 48-48 48z" horiz-adv-x="1000" />

<glyph glyph-name="social-line-square" unicode="&#xe877;" d="M388 334h-57v103c0 4-3 6-6 6h-21c-3 0-6-2-6-6v-130c0-2 1-3 2-4 1-1 3-2 4-2h84c3 0 6 2 6 6v21c0 3-3 6-6 6z m196 109h-21c-4 0-6-2-6-5v-78l-60 81c0 0 0 0-1 0 0 1 0 1 0 1 0 0 0 0 0 0 0 0 0 0 0 0s-1 0-1 0h0s0 0 0 1c0 0 0 0 0 0 0 0-1 0-1 0 0 0 0 0 0 0h0 0-1 0c0 0 0 0 0 0 0 0 0 0-1 0h0-21c-3 0-6-3-6-6v-131c0-3 3-5 6-5h21c3 0 6 2 6 5v78l60-81 1-1s1-1 1-1h0c0 0 0 0 0 0h1c0 0 0 0 0 0 1 0 1 0 2 0h21c3 0 5 2 5 5v131c1 4-2 6-5 6z m-145 0h-21c-3 0-6-2-6-5v-131c0-3 3-6 6-6h21c3 0 6 3 6 6v131c0 3-3 5-6 5z m430 307h-740c-17 0-31-14-31-31v-741c0-17 13-31 31-31h740c17 0 31 14 31 31v741c0 17-14 31-31 31z m-133-521c-63-73-204-161-236-175s-27 9-26 17c1 4 4 25 4 25 1 8 2 20-1 28-3 8-17 12-26 14-145 19-251 120-251 241 0 134 134 243 300 243s300-109 300-243c0-54-21-103-64-150z m-36 214h-84c-1 0-3 0-4-1-1-1-2-3-2-4v-131c0-2 1-3 2-4 1-1 3-2 4-2h84c3 0 6 3 6 6v21c0 3-3 6-6 6h-57v22h57c3 0 6 2 6 5v22c0 3-3 5-6 5h-57v22h57c3 0 6 3 6 6v21c0 4-3 6-6 6z" horiz-adv-x="1000" />

<glyph glyph-name="social-line" unicode="&#xe878;" d="M929 402c0 192-192 348-429 348-236 0-429-156-429-348 0-172 153-316 359-343 14-3 33-9 38-21 4-11 2-28 1-39 0 0-5-31-6-37-2-11-8-43 37-23 46 19 247 146 337 249 62 68 92 137 92 214z m-580-102c0-5-4-8-8-8h-121c-2 0-4 1-5 2v0c-2 2-3 4-3 6v187c0 4 4 8 9 8h30c4 0 8-4 8-8v-149h82c4 0 8-3 8-8z m72 0c0-5-3-8-8-8h-30c-4 0-8 3-8 8v187c0 4 4 8 8 8h30c5 0 8-4 8-8z m207 0c0-5-3-8-8-8h-30c-1 0-1 0-2 0 0 0 0 0-1 0h0c0 0 0 0 0 0 0 0-1 0-1 1 0 0 0 0 0 0s0 0 0 0c-1 0-2 1-2 2l-86 116v-111c0-5-4-9-8-9h-30c-5 0-9 4-9 9v186c0 5 4 9 9 9h30 0 0 1 0 1 0c0 0 0 0 0-1h1c0 0 0 0 0 0 0 0 0 0 0 0 1 0 1 0 1 0l0-1c0 0 0 0 1 0 0 0 0 0 0 0 0 0 0 0 0 0 0-1 0-1 1-1 0 0 0 0 0-1l86-115v111c0 4 4 8 8 8h30c5 0 8-4 8-8z m166 157c0-5-3-9-8-9h-82v-31h82c5 0 8-4 8-8v-30c0-5-3-9-8-9h-82v-31h82c5 0 8-4 8-8v-30c0-5-3-9-8-9h-120c-2 0-4 1-6 3v0c-1 1-2 3-2 6v186c0 3 1 5 2 6 2 2 4 2 6 2h120c5 0 8-3 8-8z" horiz-adv-x="1000" />

<glyph glyph-name="social-paypal-square" unicode="&#xe879;" d="M538 467c3 17 0 30-9 38-15 14-44 14-74 14h-12c-7 0-13-4-14-9l-18-92h26c45 0 91 0 101 49z m331 283h-740c-17 0-31-14-31-31v-741c0-17 13-31 31-31h740c17 0 31 14 31 31v741c0 17-14 31-31 31z m-620-599l71 457c2 12 13 20 25 20h178c59 0 104-15 129-45 23-27 31-66 23-115-18-112-85-169-202-169h-57c-12 0-22-9-24-21l-19-123c-2-12-13-21-25-21h-85c-9 0-16 9-14 17z m498 245c-18-112-123-191-246-191-14-1-22-8-23-20l-22-96c-2-12-13-20-25-20h-111c-9 0-16 8-15 17l2 14h31c46 0 69 3 76 49 0 0 12 81 14 91 2 10 5 18 18 18s27 0 27 0c138 0 222 70 243 204 4 20 4 38 3 56 0 0 1-1 1-1 23-27 35-72 27-121z" horiz-adv-x="1000" />

<glyph glyph-name="social-paypal" unicode="&#xe87a;" d="M827 575c-1 0-1 1-2 1 2-23 1-48-3-76-28-179-141-273-327-273 0 0-17 0-36 0s-22-11-24-24-19-122-19-122c-10-62-40-65-102-65h-41l-2-21c-2-12 8-23 20-23h149c16 0 30 12 32 29l30 128c2 16 13 26 31 28 166 0 306 105 330 256 11 65-5 125-36 162z m-466-486l26 165c2 17 16 28 33 28h75c157 0 248 76 272 227 11 66 0 118-31 154-34 40-94 61-174 61h-238c-17 0-31-11-33-28l-97-612c-2-12 8-23 20-23h114c16 0 30 12 33 28z m75 476c2 7 10 12 19 12h16c41 0 80 0 100-18 12-12 16-28 11-51-12-66-75-66-136-66h-34z" horiz-adv-x="1000" />

<glyph glyph-name="social-twitter-square" unicode="&#xe87b;" d="M869 751h-740c-17 0-31-14-31-31v-741c0-17 14-31 31-31h740c17 0 31 14 31 31v741c0 17-14 31-31 31z m-169-298c0-5 0-9 0-14 0-137-104-295-295-295-58 0-113 17-159 46 8-1 17-1 25-1 48 0 93 16 129 44-45 1-84 31-97 72 6-1 13-1 19-1 10 0 19 1 28 3-48 10-84 52-84 102 0 1 0 1 0 2 14-8 30-13 47-13-27 18-46 50-46 86 0 19 5 37 14 52 51-62 128-104 214-108-1 8-3 15-3 24 0 57 47 103 104 103 30 0 57-12 76-32 24 4 46 13 66 25-8-25-24-45-46-58 21 3 41 8 60 17-14-21-32-40-52-54z" horiz-adv-x="1000" />

<glyph glyph-name="social-twitter" unicode="&#xe87c;" d="M366 33c279 0 432 232 432 433 0 6 0 13 0 19 30 21 56 48 76 79-27-12-57-20-88-24 32 19 56 48 67 84-29-17-62-30-96-37-28 30-67 48-111 48-84 0-152-68-152-152 0-11 2-23 4-34-126 6-238 67-313 158-13-22-21-48-21-76 0-53 27-99 68-127-25 1-49 8-69 19v-2c0-73 52-135 122-149-13-3-26-5-40-5-10 0-20 1-29 3 19-61 76-104 142-106-52-41-118-65-189-65-12 0-24 1-36 2 67-43 147-68 233-68" horiz-adv-x="1000" />

<glyph glyph-name="social-youtube-square" unicode="&#xe87d;" d="M440 258l156 90-156 90z m429 492h-740c-17 0-31-14-31-31v-741c0-17 13-31 31-31h740c17 0 31 14 31 31v741c0 17-14 31-31 31z m-81-546c-7-26-28-46-53-53-47-13-235-13-235-13s-188 0-234 13c-26 7-47 27-53 53-13 47-13 144-13 144s0 98 13 145c7 26 27 46 53 53 46 12 234 12 234 12s188 0 235-12c25-7 46-27 53-53 12-47 12-145 12-145s0-97-12-144z" horiz-adv-x="1000" />

<glyph glyph-name="social-youtube" unicode="&#xe87e;" d="M906 517c-12 46-48 82-94 94-63 17-284 18-309 18s-245-1-308-18c-46-12-82-48-94-94-17-64-18-188-18-194s1-130 18-194c12-45 48-82 94-94 63-17 284-17 309-17s246 0 308 17c46 12 82 48 95 94 17 64 17 189 17 194s0 130-18 194z m-72-368c-5-20-21-36-41-41-40-11-199-15-289-15s-250 4-290 15c-20 5-35 21-41 41-12 45-14 141-14 174s2 130 14 175c6 20 21 36 41 41 40 11 199 15 290 15s249-4 289-15c20-5 36-21 41-41 12-45 15-142 15-175s-3-129-15-174z m-407 59l199 115-199 115z" horiz-adv-x="1000" />

<glyph glyph-name="sort-bottom2down" unicode="&#xe87f;" d="M333 103c-8 8-21 8-30 0l-54-54v730c0 12-10 21-21 21h-33c-11 0-21-9-21-21v-731l-55 54c-8 9-21 9-30 0l-23-23c-8-8-8-21 0-30l130-129c8-9 22-9 30 0l130 130c9 8 9 22 0 30z m346 96h-233c-12 0-21-9-21-21v-32c0-12 9-22 21-22h233c12 0 21 10 21 22v32c0 12-10 21-21 21z m125 225h-358c-12 0-21-9-21-21v-32c0-12 9-22 21-22h358c12 0 21 10 21 22v32c0 12-10 21-21 21z m125 227h-483c-12 0-21-10-21-22v-32c0-12 9-21 21-21h483c12 0 21 9 21 21v32c0 12-10 22-21 22z" horiz-adv-x="1000" />

<glyph glyph-name="sort-bottom2top" unicode="&#xe880;" d="M226 780c-8 9-22 9-30 0l-129-129c-9-8-9-22 0-30l23-23c8-8 21-8 30 0l54 54v-731c0-12 10-21 21-21h33c12 0 21 9 21 21v731l55-55c8-8 21-8 30 0l23 23c8 8 8 22 0 30z m220-279h233c12 0 21 9 21 21v32c0 12-9 22-21 22h-233c-12 0-21-10-21-22v-32c0-12 9-21 21-21z m0-225h358c12 0 21 9 21 21v32c0 12-9 22-21 22h-358c-12 0-21-10-21-22v-32c0-12 9-21 21-21z m483-152h-483c-12 0-21-9-21-21v-32c0-12 9-22 21-22h483c12 0 21 10 21 22v32c0 12-10 21-21 21z" horiz-adv-x="1000" />

<glyph glyph-name="status-add" unicode="&#xe881;" d="M879 388h-341v341c0 12-10 21-22 21h-32c-12 0-21-9-21-21v-341h-342c-11 0-21-10-21-22v-32c0-12 10-21 21-21h342v-342c0-12 9-21 21-21h32c12 0 22 9 22 21v342h341c12 0 21 9 21 21v32c0 12-9 22-21 22z" horiz-adv-x="1000" />

<glyph glyph-name="status-ban" unicode="&#xe882;" d="M500 800c-248 0-450-201-450-450s202-450 450-450 450 202 450 450-201 450-450 450z m0-75c90 0 172-31 236-84l-527-527c-52 64-84 147-84 236 0 207 168 375 375 375z m0-750c-90 0-173 32-238 86l527 527c54-65 86-148 86-238 0-207-168-375-375-375z" horiz-adv-x="1000" />

<glyph glyph-name="status-check" unicode="&#xe883;" d="M421 64l-339 316c-6 5-6 14-1 20l32 34c5 6 14 6 20 1l292-272 458 552c5 6 14 7 20 2l36-30c6-5 7-14 2-20l-499-602c-6-6-15-6-21-1z" horiz-adv-x="1000" />

<glyph glyph-name="status-circle-info" unicode="&#xe884;" d="M501 798c-249 0-450-202-450-450s201-451 450-451 450 202 450 451-202 450-450 450z m37-737c0-7-6-14-14-14h-47c-8 0-14 6-14 14v322c0 8 6 14 14 14h47c8 0 14-6 14-14z m0 426c0-8-6-14-14-14h-47c-8 0-14 6-14 14v96c0 8 6 14 14 14h47c8 0 14-6 14-14z" horiz-adv-x="1000" />

<glyph glyph-name="status-error" unicode="&#xe885;" d="M551 348l266 266c5 5 5 14 0 20l-33 33c-6 5-15 5-20 0l-266-266-265 266c-5 5-14 5-20 0l-33-33c-5-6-5-15 0-20l265-266-265-265c-5-5-5-14 0-20l33-33c6-5 15-5 20 0l265 265 266-265c5-5 14-5 20 0l33 33c5 6 5 15 0 20z" horiz-adv-x="1000" />

<glyph glyph-name="status-question-mark" unicode="&#xe886;" d="M516 23h-32c-12 0-21-9-21-21v-81c0-12 9-21 21-21h32c12 0 22 9 22 21v81c0 12-10 21-22 21z m216 628c-13 23-31 44-52 60-160 123-364 55-430-102-11-27-18-54-20-82-1-13 8-24 21-24h33c11 0 20 8 21 19 2 20 7 39 14 58 35 82 119 130 209 118 85-12 155-81 167-166 13-89-34-174-118-210-69-29-114-96-114-169v-31c0-12 9-21 21-21h33c11 0 21 9 21 21v31c0 43 27 83 70 101 146 63 212 238 124 397z" horiz-adv-x="1000" />

<glyph glyph-name="status-remove" unicode="&#xe887;" d="M879 313h-758c-11 0-21 9-21 21v32c0 12 10 22 21 22h758c12 0 21-10 21-22v-32c0-12-9-21-21-21z" horiz-adv-x="1000" />

<glyph glyph-name="status-triangle-warning" unicode="&#xe888;" d="M943 88l-409 674c-16 27-55 27-71 0l-406-670c-17-28 3-63 36-63l814-4c33 0 53 36 36 63z m-405 33c0-12-10-21-22-21h-32c-12 0-21 9-21 21v57c0 12 9 21 21 21h32c12 0 22-9 22-21z m0 175c0-12-10-21-22-21h-32c-12 0-21 9-21 21v232c0 12 9 22 21 22h32c12 0 22-10 22-22z" horiz-adv-x="1000" />

<glyph glyph-name="status-warning" unicode="&#xe889;" d="M463 704v-533c0-11 9-21 21-21h32c12 0 22 10 22 21v533c0 12-10 21-22 21h-32c-12 0-21-9-21-21z m21-804h32c12 0 22 9 22 21v107c0 12-10 21-22 21h-32c-12 0-21-9-21-21v-107c0-12 9-21 21-21z" horiz-adv-x="1000" />

<glyph glyph-name="sup-add" unicode="&#xe88a;" d="M936 849h-272c-35 0-63-28-63-64v-271c0-35 28-64 63-64h272c35 0 63 29 63 64v271c0 36-28 64-63 64z m14-210c0-8-6-14-14-14h-111v-111c0-8-6-15-14-15h-22c-8 0-14 7-14 15v111h-111c-8 0-15 6-15 14v22c0 7 7 14 15 14h111v111c0 7 6 14 14 14h22c7 0 14-6 14-14v-111h111c8 0 14-7 14-15z" horiz-adv-x="1000" />

<glyph glyph-name="sup-arrow-down" unicode="&#xe88b;" d="M936 849h-272c-35 0-63-28-63-64v-271c0-35 28-64 63-64h272c35 0 64 29 64 64v271c0 36-29 64-64 64z m-15-214l-110-122c-6-6-15-6-21 0l-110 123c-5 6-5 15 1 20l16 15c6 5 15 4 20-1l58-66v182c0 8 7 14 15 14h21c8 0 15-6 15-14v-182l58 65c5 6 14 6 20 1l16-15c6-5 6-14 1-20z" horiz-adv-x="1000" />

<glyph glyph-name="sup-arrow-left" unicode="&#xe88c;" d="M936 849h-272c-35 0-63-28-63-64v-271c0-35 28-64 63-64h272c35 0 64 29 64 64v271c0 36-29 64-64 64z m15-211c0-8-7-14-15-14h-181l64-58c6-5 7-14 1-20l-14-16c-5-6-14-6-20-1l-122 110c-7 5-7 15 0 21l123 110c5 5 14 5 20-1l14-16c5-6 5-15-1-20l-65-59h182c7 0 14-6 14-14v-22z" horiz-adv-x="1000" />

<glyph glyph-name="sup-arrow-right" unicode="&#xe88d;" d="M937 849h-272c-35 0-63-28-63-64v-271c0-35 28-64 63-64h272c35 0 64 29 64 64v271c0 36-29 64-64 64z m0-209l-123-111c-5-5-14-4-20 1l-14 16c-5 6-5 15 1 20l65 59h-181c-8 0-15 6-15 14v22c0 8 7 14 15 14h181l-64 58c-6 6-7 15-1 20l14 16c5 6 14 7 20 1l122-109c7-6 7-16 0-21z" horiz-adv-x="1000" />

<glyph glyph-name="sup-arrow-top" unicode="&#xe88e;" d="M936 849h-272c-35 0-64-28-64-64v-271c0-35 29-64 64-64h272c35 0 63 29 63 64v271c0 36-28 64-63 64z m-17-206l-16-14c-6-6-15-5-20 1l-59 65v-182c0-8-6-14-14-14h-22c-7 0-14 6-14 14v182l-58-65c-5-5-14-6-20-1l-16 15c-6 5-6 14-1 20l110 122c6 6 15 6 21 0l110-123c5-6 5-15-1-20z" horiz-adv-x="1000" />

<glyph glyph-name="sup-caret-down" unicode="&#xe88f;" d="M936 850h-272c-35 0-64-29-64-64v-272c0-35 29-64 64-64h272c35 0 64 29 64 64v272c0 35-29 64-64 64z m-5-126l-119-196c-5-9-19-9-24 0l-120 198c-6 9 1 21 12 21l239-1c11 0 18-12 12-22z" horiz-adv-x="1000" />

<glyph glyph-name="sup-caret-left" unicode="&#xe890;" d="M936 850h-272c-35 0-64-29-64-64v-272c0-35 29-64 64-64h272c35 0 64 29 64 64v272c0 35-29 64-64 64z m-40-319c0-11-12-18-21-12l-197 119c-9 5-9 19 0 24l198 120c9 6 21-1 21-12z" horiz-adv-x="1000" />

<glyph glyph-name="sup-caret-right" unicode="&#xe891;" d="M664 450h272c36 0 64 29 64 64v272c0 35-28 64-64 64h-272c-35 0-64-29-64-64v-272c0-35 29-64 64-64z m40 319c0 11 12 18 22 12l197-119c9-6 9-19 0-24l-198-121c-10-5-22 1-22 13z" horiz-adv-x="1000" />

<glyph glyph-name="sup-caret-top" unicode="&#xe892;" d="M936 850h-273c-35 0-63-29-63-64v-272c0-35 28-64 63-64h273c35 0 63 29 63 64v272c0 35-28 64-63 64z m-16-297l-240 1c-11 0-18 12-12 21l119 197c6 9 19 9 25 0l120-198c6-9-1-21-12-21z" horiz-adv-x="1000" />

<glyph glyph-name="sup-check" unicode="&#xe893;" d="M935 849h-271c-35 0-64-29-64-64v-271c0-35 29-64 64-64h271c36 0 64 29 64 64v271c0 35-28 64-64 64z m5-128l-156-188c-5-6-14-7-20-1l-105 97c-6 5-6 14-1 20l15 16c5 5 14 6 20 0l77-71 132 159c5 6 14 7 20 2l17-14c6-5 6-14 1-20z" horiz-adv-x="1000" />

<glyph glyph-name="sup-error" unicode="&#xe894;" d="M936 849h-272c-35 0-63-29-63-64v-271c0-36 28-64 63-64h272c35 0 64 28 64 64v271c-1 35-29 64-64 64z m2-303c6-5 6-14 0-20l-15-15c-5-5-14-5-20 0l-103 103-103-103c-5-5-14-5-20 0l-15 15c-6 6-6 15 0 20l103 103-103 103c-6 6-6 15 0 20l15 16c6 5 15 5 20 0l103-103 103 103c6 5 15 5 20 0l15-16c6-5 6-14 0-20l-103-103z" horiz-adv-x="1000" />

<glyph glyph-name="sup-fire" unicode="&#xe895;" d="M935 850h-271c-36 0-64-28-64-64v-271c0-35 28-64 64-64h271c35 0 64 29 64 64v271c0 35-29 64-64 64z m-24-314c5 11 8 24 8 37 0 40-26 74-62 85 20-16 33-41 33-69 0-48-40-88-89-88-9 0-17 2-26 4-1 0-2 0-3 0-60 0-108 48-108 107 0 37 19 70 48 89-1-4-1-9-1-14 0-19 11-45 32-54 4-2 8-3 12-3 14 0 26 11 26 26 0 5-4 14-4 14-10 16-19 35-19 55 0 30 15 57 36 76 11-39 42-69 81-79 49-15 75-55 75-103 0-34-15-63-39-83z" horiz-adv-x="1000" />

<glyph glyph-name="sup-heart" unicode="&#xe896;" d="M936 849h-272c-35 0-63-29-63-64v-271c0-36 28-64 63-64h272c35 0 64 28 64 64v271c0 35-29 64-64 64z m-87-305l-49-37-49 37c-38 28-101 85-101 152 0 46 37 82 82 82 29 0 53-14 68-35 15 21 40 35 68 35 45 0 82-36 82-82 0-67-63-124-101-152z" horiz-adv-x="1000" />

<glyph glyph-name="sup-info" unicode="&#xe897;" d="M936 849h-271c-35 0-64-29-64-64v-271c0-35 29-64 64-64h271c36 0 64 29 64 64v271c0 35-28 64-64 64z m-110-335c0-8-6-14-14-14h-22c-8 0-14 6-14 14v150c0 8 6 15 14 15h22c7 0 14-7 14-15z m0 236c0-7-6-14-14-14h-22c-8 0-14 6-14 14v36c0 8 6 14 14 14h22c7 0 14-6 14-14z" horiz-adv-x="1000" />

<glyph glyph-name="sup-lightning" unicode="&#xe898;" d="M936 850h-273c-35 0-63-29-63-64v-272c0-35 28-64 63-64h273c35 0 63 29 63 64v272c0 35-28 64-63 64z m-39-61l-58-124c-1-3-1-7 2-9l53-46c4-4 3-10-2-13l-160-96c-6-4-14 3-11 10l38 83c1 3 0 7-2 9l-52 41c-3 3-4 7-2 10l71 142c1 2 4 4 7 4h108c6 0 10-6 8-11z" horiz-adv-x="1000" />

<glyph glyph-name="sup-money" unicode="&#xe899;" d="M873 626h-48v-53h48c14 0 26 12 26 27 0 14-12 26-26 26z m63 223h-272c-35 0-63-28-63-64v-271c0-35 28-64 63-64h272c35 0 64 29 64 64v271c0 36-29 64-64 64z m12-264c-7-37-41-62-78-62h-45v-9c0-7-6-14-14-14h-22c-8 0-14 6-14 14v9h-85c-8 0-14 7-14 15v21c0 8 6 15 14 15h85v52h-45c-37 0-71 25-78 61-9 48 28 90 75 90h48v9c0 8 6 14 14 14h22c8 0 14-6 14-14v-8h84c8 0 14-7 14-15v-21c0-8-6-15-14-15h-84v-51h48c47 0 84-43 75-91z m-247 117c0-14 11-26 26-26h48v52h-48c-15 0-26-12-26-26z" horiz-adv-x="1000" />

<glyph glyph-name="sup-more" unicode="&#xe89a;" d="M936 849h-272c-35 0-63-29-63-64v-271c0-36 28-64 63-64h272c35 0 63 28 63 64v271c0 35-28 64-63 64z m-186-236c0-7-6-14-14-14h-72c-8 0-15 6-15 14v72c0 8 7 15 15 15h72c7 0 14-7 14-15z m201 0c0-7-7-14-15-14h-72c-7 0-14 6-14 14v72c0 8 6 15 14 15h72c8 0 15-7 15-15z" horiz-adv-x="1000" />

<glyph glyph-name="sup-question-mark" unicode="&#xe89b;" d="M936 849h-271c-36 0-64-28-64-63v-272c0-35 28-64 64-64h271c36 0 64 29 64 64v272c0 35-28 63-64 63z m-106-335c0-8-6-14-14-14h-22c-8 0-14 6-14 14v25c0 8 6 15 14 15h22c8 0 14-7 14-15z m14 100c-9-4-14-11-14-19v-10h0c0-3-3-6-7-6h-36c-4 0-7 3-7 6v10c0 28 17 53 44 65 19 8 31 29 28 50-3 21-20 38-40 40-22 3-42-8-51-28-2-6-3-12-3-19h-50c0 13 2 26 7 38 17 40 60 65 103 59 43-6 77-40 83-83 6-44-17-86-57-103z" horiz-adv-x="1000" />

<glyph glyph-name="sup-remove" unicode="&#xe89c;" d="M936 850h-272c-36 0-64-29-64-64v-272c0-36 28-64 64-64h272c35 0 64 28 64 64v272c0 35-29 64-64 64z m14-211c0-8-6-14-14-14h-272c-8 0-14 6-14 14v22c0 7 6 14 14 14h272c7 0 14-6 14-14z" horiz-adv-x="1000" />

<glyph glyph-name="sup-star" unicode="&#xe89d;" d="M935 849h-271c-35 0-64-29-64-64v-271c0-35 29-64 64-64h271c36 0 64 29 64 64v271c0 35-28 64-64 64z m-4-178l-54-55 12-75c1-12-10-20-21-15l-68 34-69-34c-10-5-22 3-20 15l11 75-54 55c-8 8-3 22 8 24l76 12 35 69c5 10 20 10 25 0l35-69 76-12c12-2 16-16 8-24z" horiz-adv-x="1000" />

<glyph glyph-name="sup-warning" unicode="&#xe89e;" d="M936 849h-271c-36 0-64-29-64-64v-271c0-36 28-64 64-64h271c35 0 64 28 64 64v271c0 35-29 64-64 64z m-111-335c0-8-6-14-14-14h-22c-7 0-14 6-14 14v34c0 8 6 15 14 15h22c8 0 14-7 14-15z m0 120c0-7-6-14-14-14h-22c-7 0-14 6-14 14v152c0 7 6 14 14 14h22c8 0 14-6 14-14z" horiz-adv-x="1000" />

<glyph glyph-name="symbol-money-eur" unicode="&#xe89f;" d="M679 723c46-1 90-10 132-26 11-5 23 0 28 10l14 30c5 11 0 24-11 28-53 22-110 33-167 33-191 0-361-123-423-298h-131c-11 0-21-10-21-22v-32c0-12 10-21 21-21h111c0-3-1-5-1-8-7-49-6-97 1-142h-111c-11 0-21-10-21-22v-32c0-12 10-21 21-21h131c62-174 228-299 422-299 57 0 111 11 163 31 12 5 17 18 12 29l-14 29c-5 11-17 16-27 11-43-16-88-25-134-25-153 0-284 92-342 224h376c12 0 21 9 21 21v32c0 12-9 22-21 22h-399c-9 42-11 86-4 132 1 6 2 12 4 18h399c12 0 22 9 22 21v32c0 12-10 22-22 22h-376c59 133 196 225 347 223z" horiz-adv-x="1000" />

<glyph glyph-name="symbol-money-jpy" unicode="&#xe8a0;" d="M819 350c11 0 21 10 21 22v32c0 12-10 21-21 21h-195l149 322c5 10 0 23-10 28l-30 14c-11 5-23 0-28-10l-163-353h-84l-163 352c-5 11-17 16-28 11l-29-14c-11-5-16-17-11-28l149-321h-195c-11 0-21-10-21-22v-32c0-12 10-21 21-21h282v-175h-282c-11 0-21-10-21-22v-32c0-12 10-21 21-21h282v-180c0-11 9-21 21-21h32c12 0 22 10 22 21v180h281c11 0 21 9 21 21v32c0 12-10 22-21 22h-281v175h281z" horiz-adv-x="1000" />

<glyph glyph-name="symbol-money-square-eur" unicode="&#xe8a1;" d="M930 750h-857c-12 0-21-9-21-21v-758c0-12 9-21 21-21h857c12 0 22 9 22 21v758c0 12-10 21-22 21z m-196-124l-13-28c-5-11-17-16-27-12-31 11-64 17-97 15-91-3-172-57-213-134h240c12 0 22-9 22-21v-33c0-11-10-21-22-21h-265c-1-1-1-2-1-3-4-28-3-54 1-80h265c12 0 22-10 22-21v-33c0-12-10-21-22-21h-240c42-80 126-135 222-135 29 0 58 5 84 15 11 4 23-1 28-11l13-30c5-11 0-24-11-28-36-14-74-21-114-21-138 0-257 88-304 210h-78c-12 0-21 9-21 21v33c0 11 9 21 21 21h59c-3 27-3 55 0 83h-59c-12 0-21 10-21 21v33c0 12 9 21 21 21h78c45 118 158 203 288 209 46 2 91-5 133-21 11-4 16-18 11-29z" horiz-adv-x="1000" />

<glyph glyph-name="symbol-money-square-jpy" unicode="&#xe8a2;" d="M930 750h-858c-12 0-21-9-21-21v-758c0-12 9-21 21-21h858c11 0 21 9 21 21v758c0 12-10 21-21 21z m-164-383c0-11-10-21-22-21h-208v-122h208c12 0 22-9 22-21v-32c0-12-10-22-22-22h-208v-103c0-12-10-21-21-21h-33c-12 0-21 9-21 21v103h-209c-11 0-21 10-21 22v32c0 12 10 21 21 21h209v122h-209c-11 0-21 10-21 21v33c0 12 10 21 21 21h136l-101 219c-5 11 0 23 10 28l30 14c11 5 23 0 28-10l116-250h55l116 250c5 11 17 15 28 10l30-14c10-5 15-17 10-28l-101-219h136c11 0 21-9 21-21v-33z" horiz-adv-x="1000" />

<glyph glyph-name="symbol-money-square-thb" unicode="&#xe8a3;" d="M299 422h130v117h-130z m335 58c0 33-26 59-59 59h-71v-117h71c33 0 59 26 59 58z m-335-336h130v203h-130z m630 606h-858c-11 0-21-9-21-21v-758c0-12 10-21 21-21h858c12 0 21 9 21 21v758c0 12-9 21-21 21z m-148-528c-11-89-91-153-181-153h-96v-22c0-12-9-21-21-21h-33c-11 0-21 9-21 21v22h-183c-12 0-22 9-22 21v257 75 171c0 11 10 21 22 21h183v39c0 12 10 21 21 21h33c12 0 21-9 21-21v-39h71c78 0 141-67 133-147-2-24-11-45-25-63 65-32 108-103 98-182z m-175 125h-37-65v-203h102c56 0 102 46 102 102s-46 101-102 101z" horiz-adv-x="1000" />

<glyph glyph-name="symbol-money-square-usd" unicode="&#xe8a4;" d="M442 389h116v114h-116z m0-191h116v116h-116z m487 552h-857c-12 0-22-9-22-21v-758c0-12 10-21 22-21h857c12 0 21 9 21 21v758c0 12-9 21-21 21z m-264-627h-32v-77c0-11-10-21-21-21h-33c-12 0-21 10-21 21v77h-116v-77c0-11-10-21-21-21h-33c-12 0-21 10-21 21v77h-94c-12 0-22 9-22 21v32c0 12 10 22 22 22h94v116h-25c-69 0-130 50-137 119-8 78 54 145 131 145h31v76c0 12 10 21 21 21h33c12 0 21-9 21-21v-76h116v76c0 12 10 21 21 21h33c12 0 21-9 21-21v-76h94c12 0 22-10 22-22v-32c0-12-10-21-22-21h-94v-114h26c75 0 140-62 138-137-3-73-62-129-132-129z m-385 329c-4-34 23-63 56-63h31v114h-27c-30 0-57-22-60-51z m385-138h-32v-116h30c31 0 57 23 58 53 2 36-24 63-56 63z" horiz-adv-x="1000" />

<glyph glyph-name="symbol-money-thb" unicode="&#xe8a5;" d="M744 409c17 20 28 44 31 71 12 91-59 169-148 169h-87v130c0 12-9 21-21 21h-32c-12 0-21-9-21-21v-130h-219c-12 0-21-9-21-21v-202-75-302c0-12 9-22 21-22h219v-106c0-12 9-21 21-21h32c12 0 22 9 22 21v107h115c106 0 199 79 206 185 6 87-44 163-118 196z m-116 165c41 0 74-33 74-74s-33-74-74-74h-87v148z m-327 0h165v-148h-165z m0-471v248h165v-248z m363 0h-123v248h81 42c68 0 124-56 124-124 0-69-56-124-124-124z" horiz-adv-x="1000" />

<glyph glyph-name="symbol-money-usd" unicode="&#xe8a6;" d="M659 389h-24v187h119c11 0 21 9 21 21v32c0 12-10 22-21 22h-119v128c0 12-9 21-21 21h-33c-11 0-21-9-21-21v-128h-120v128c0 12-10 21-21 21h-33c-11 0-21-9-21-21v-128h-22c-100 0-180-88-167-191 11-84 87-146 172-146h17v-189h-119c-11 0-21-10-21-22v-32c0-12 10-21 21-21h119v-129c0-12 10-21 21-21h33c12 0 21 9 21 21v129h120v-129c0-12 10-21 22-21h32c12 0 21 9 21 21v129h24c93 0 168 75 168 168v3c0 93-75 168-168 168z m-99 187v-187h-120v187z m-217-187c-58 0-104 53-92 113 9 44 50 74 94 74h20v-187z m97-264v189h120v-189z m312 93c0-52-42-93-93-93h-24v189h24c51 0 93-41 93-93z" horiz-adv-x="1000" />

<glyph glyph-name="symbol-percent" unicode="&#xe8a7;" d="M768 766l-40 23c-7 4-16 2-19-5l-477-826c-4-7-2-16 5-20l40-23c7-4 16-1 20 5l477 826c3 7 1 16-6 20z m-329-203c0 82-67 150-150 150s-150-68-150-150 67-150 150-150 150 67 150 150z m-225 0c0 41 34 75 75 75s75-34 75-75-34-75-75-75-75 33-75 75z m496-275c-83 0-150-68-150-150s67-151 150-151 150 68 150 151-68 150-150 150z m0-225c-42 0-75 33-75 75s33 75 75 75 75-34 75-75-34-75-75-75z" horiz-adv-x="1000" />

<glyph glyph-name="table" unicode="&#xe8a8;" d="M900 729c0 6-3 12-6 15s-10 7-15 7h-758c-11 0-21-10-21-22v-757c0-12 10-21 21-21h758c11 0 21 9 21 21v625z m-725-378h172v-122h-172z m247 0h151v-122h-151z m226 0h177v-122h-177z m0 75v55c0 12-10 21-21 21h-33c-12 0-21-9-21-21v-55h-151v55c0 12-9 21-21 21h-33c-11 0-21-9-21-21v-55h-172v150h650v-150z m-473-400v128h172v-58c0-11 10-21 21-21h33c12 0 21 10 21 21v58h151v-58c0-11 9-21 21-21h33c11 0 21 10 21 21v58h177v-128z" horiz-adv-x="1000" />

<glyph glyph-name="tag" unicode="&#xe8a9;" d="M942 365l-238 305c-4 5-11 8-17 8h-616c-11 0-21-10-21-21v-609c0-12 10-22 21-22h616c6 0 13 3 17 9l238 304c6 8 6 19 0 26z m-510-91c0-12-10-21-22-21h-185c-12 0-22 9-22 21v7c0 12 10 22 22 22h185c12 0 22-10 22-22z m99 149c0-12-10-21-21-21h-285c-12 0-22 9-22 21v8c0 11 10 21 22 21h285c11 0 21-10 21-21z" horiz-adv-x="1000" />

<glyph glyph-name="target" unicode="&#xe8aa;" d="M929 388h-56c-17 177-158 319-335 337v54c0 12-10 21-22 21h-32c-12 0-21-9-21-21v-54c-179-17-321-159-338-337h-54c-11 0-21-10-21-22v-32c0-12 10-21 21-21h54c19-178 160-319 338-336v-56c0-12 9-21 21-21h32c12 0 22 9 22 21v57c176 18 316 158 334 335h57c12 0 21 9 21 21v32c0 12-9 22-21 22z m-130-54c0-12-9-21-21-21h-240v-241c0-12-10-21-22-21h-32c-12 0-21 9-21 21v241h-241c-12 0-21 9-21 21v32c0 12 9 22 21 22h241v240c0 12 9 21 21 21h32c12 0 22-9 22-21v-240h240c12 0 21-10 21-22z" horiz-adv-x="1000" />

<glyph glyph-name="ticket" unicode="&#xe8ab;" d="M893 333c-11 9-11 25 0 34l57 44v246c0 11-9 21-21 21h-858c-12 0-21-10-21-21v-19l60-46c11-9 11-25 0-34l-60-46v-97l59-46c11-8 11-25 0-34l-59-45v-99l59-46c11-8 11-25 0-33l-59-46v-18c0-12 9-21 21-21h858c12 0 21 9 21 21v242z m-465-59c0-12-10-21-22-21h-185c-12 0-21 9-21 21v7c0 12 9 22 21 22h186c11 0 21-10 21-22v-7z m99 149c0-12-10-21-21-21h-285c-12 0-21 9-21 21v8c0 11 9 21 21 21h285c12 0 21-10 21-21v-8z" horiz-adv-x="1000" />

<glyph glyph-name="trash" unicode="&#xe8ac;" d="M876 725h-216l-8 58c-1 10-10 18-21 18h-262c-10 0-19-8-21-18l-8-58h-216c-13 0-23-11-21-24l6-51h782l6 51c2 13-8 24-21 24z m-678-806c1-11 10-19 21-19h562c11 0 20 8 21 19l80 656h-764z m180 562l60-482c1-13-8-24-21-24h-8c-10 0-19 8-21 19l-59 482c-2 13 8 24 21 24h7c11 0 20-8 21-19z m-125 0l60-482c1-13-8-24-21-24h-8c-10 0-19 8-21 19l-59 482c-2 13 8 24 21 24h7c11 0 20-8 21-19z" horiz-adv-x="1000" />

<glyph glyph-name="user-group" unicode="&#xe8ad;" d="M895 293c-1 4-3 6-7 7l-157 66h26c36 0 64 29 64 64v182c0 35-28 63-64 63h-125c-35 0-64-28-64-63v-182c0-35 29-64 64-64h27l-111-46 62-26c17-7 30-21 36-38l1-2 0-2 65-252c82 3 163 24 237 65l1 1z m-304-45l-96 40-94 39h45c36 0 64 29 64 64v246c0 35-28 63-64 63h-177c-35 0-64-28-64-63v-246c0-35 29-64 64-64h45l-189-79c-4-2-7-5-8-9l-66-259c12-7 24-13 36-19 3-1 7-3 10-4 9-4 18-8 27-12 5-2 9-3 13-5 9-3 17-6 25-9 5-1 9-3 14-4 8-2 16-5 25-7 4-1 9-2 14-3 8-2 16-4 25-6 5-1 10-1 16-2 8-1 15-3 23-4 6-1 12-1 19-2 7 0 14-1 21-2 6 0 13 0 19 0 7 0 14-1 20-1 7 0 14 1 22 1 6 0 12 0 18 0 7 1 15 2 22 2 6 1 12 1 18 2 8 1 16 3 24 4 5 1 10 1 15 2 8 2 16 4 24 6 5 1 10 2 15 3 7 2 15 4 23 7 5 1 10 2 15 4 9 3 18 7 27 10 4 1 7 3 11 4 8 3 17 7 25 11 4 2 8 3 12 5 12 6 24 12 36 18l1 1-66 259c-2 4-5 7-9 9z" horiz-adv-x="1000" />

<glyph glyph-name="user" unicode="&#xe8ae;" d="M781 181c-6 17-19 31-36 37l-196 83h60c35 0 63 28 63 63v298c0 35-28 63-63 63h-220c-35 0-64-28-64-63v-298c0-35 29-63 64-63h60l-196-83c-16-7-29-20-35-37l-68-190c217-121 481-121 698-1l1 1z" horiz-adv-x="1000" />

<glyph glyph-name="video-microphone" unicode="&#xe8af;" d="M414 226h172c36 0 64 28 64 63v447c0 36-28 64-64 64h-172c-36 0-64-28-64-64v-447c0-35 28-63 64-63z m365 276h-33c-11 0-21-9-21-21v-224c0-58-47-106-106-106h-239c-58 0-106 48-106 106v224c0 12-9 21-21 21h-32c-12 0-22-9-22-21v-224c0-100 81-181 181-181h82v-155c0-12 10-21 21-21h33c12 0 21 9 21 21v155h82c100 0 181 81 181 181v224c0 12-9 21-21 21z" horiz-adv-x="1000" />

<glyph glyph-name="video" unicode="&#xe8b0;" d="M918 392l-243-128v65c0 12-10 21-22 21h-580c-12 0-21-9-21-21v-355c0-12 9-21 21-21h580c12 0 21 9 21 21v74l244-129c14-7 31 3 31 19v435c0 16-17 26-31 19z m-544-146c0-11-9-21-21-21h-207c-12 0-22 10-22 21v8c0 12 10 21 22 21h207c12 0 21-9 21-21z m-125 158c86 0 160 55 188 131 27-76 101-131 187-131 110 0 200 89 200 199s-90 200-200 200c-86 0-160-55-187-132-28 77-102 132-188 132-110 0-199-90-199-200s89-199 199-199z" horiz-adv-x="1000" />
</font>
</defs>
</svg>
